VERSION	0.00.00	1.03.00
FES_MODE	0
BPM_DEF	200.000	200.000	200.000	200.000
MET_DEF	4	4
RESOLUTION	384
CLK_DEF	384
COMPATIBLE_CODE	MA2

BPM	0	0	200.000
MET	0	0	4	4
MET	53	0	4	3
MET	65	0	4	4

STR	1	0	4
SCL	1	0	4	96	192	1
HLD	1	0	5	288
HLD	2	0	2	288
STR	2	0	3
SCR	2	0	3	96	192	6
STR	3	0	4
SCL	3	0	4	96	192	1
HLD	3	0	5	288
TAP	4	0	3
TAP	4	0	6
TAP	4	96	1
TAP	4	96	4
STR	4	192	1
SI_	4	192	1	96	48	4
STR	4	192	6
SI_	4	192	6	96	48	3
TAP	5	0	2
TAP	5	0	3
TAP	5	96	3
TAP	5	96	5
TAP	5	192	2
TAP	5	192	3
TAP	5	288	3
TAP	5	288	6
TAP	6	0	2
TAP	6	0	3
HLD	6	96	3	48
HLD	6	96	5	48
HLD	6	192	4	48
HLD	6	192	6	48
TAP	6	288	5
TAP	6	288	7
TAP	7	0	4
TAP	7	0	5
TAP	7	96	2
TAP	7	96	4
TAP	7	192	4
TAP	7	192	5
TAP	7	288	1
TAP	7	288	4
TAP	8	0	4
TAP	8	0	5
HLD	8	96	2	48
HLD	8	96	4	48
HLD	8	192	1	48
HLD	8	192	3	48
TAP	8	288	0
TAP	8	288	2
TAP	9	0	2
TAP	9	0	3
TAP	9	96	3
TAP	9	96	5
TAP	9	192	2
TAP	9	192	3
TAP	9	288	3
TAP	9	288	6
TAP	10	0	2
TAP	10	0	3
HLD	10	96	3	48
HLD	10	96	5	48
HLD	10	192	4	48
HLD	10	192	6	48
TAP	10	288	5
TAP	10	288	7
TAP	11	0	2
TAP	11	0	4
HLD	11	48	2	48
HLD	11	48	4	48
TAP	11	192	4
TAP	11	192	6
HLD	11	240	4	48
HLD	11	240	6	48
TAP	12	0	0
TAP	12	0	4
HLD	12	48	0	48
HLD	12	48	4	48
TAP	12	192	3
TAP	12	192	4
TAP	12	240	3
TAP	12	240	4
TAP	12	288	2
TAP	12	288	5
STR	13	0	6
SI_	13	0	6	96	48	4
TAP	13	0	7
STR	13	144	0
SI_	13	144	0	96	48	2
STR	13	288	7
SI_	13	288	7	96	48	3
TAP	14	0	0
TAP	14	48	0
TAP	14	96	0
HLD	14	192	2	96
TAP	14	192	3
TAP	14	288	1
TAP	15	0	0
STR	15	0	1
SI_	15	0	1	96	48	3
STR	15	144	7
SI_	15	144	7	96	48	5
STR	15	288	0
SI_	15	288	0	96	48	4
TAP	16	0	7
TAP	16	48	7
STR	16	96	7
SF_	16	96	7	96	96	3
TAP	17	0	0
STR	17	0	1
SCR	17	0	1	96	48	4
STR	17	144	7
SCL	17	144	7	96	48	4
STR	17	288	0
SI_	17	288	0	96	48	4
TAP	18	0	7
TAP	18	48	7
TAP	18	96	7
TAP	18	192	4
HLD	18	192	5	96
TAP	18	288	6
STR	19	0	6
SCL	19	0	6	96	48	3
TAP	19	0	7
STR	19	144	0
SCR	19	144	0	96	48	3
STR	19	288	7
SI_	19	288	7	96	48	3
TAP	20	0	0
TAP	20	48	0
STR	20	96	0
SF_	20	96	0	96	96	4
HLD	21	0	2	96
STR	21	0	3
SI_	21	0	3	96	48	5
HLD	21	192	2	96
STR	21	192	3
SI_	21	192	3	96	48	1
HLD	22	0	2	96
STR	22	0	3
SI_	22	0	3	96	48	5
HLD	22	192	2	96
STR	22	192	3
SI_	22	192	3	96	48	1
HLD	23	0	2	96
STR	23	0	3
SI_	23	0	3	96	48	6
HLD	23	192	2	96
STR	23	192	3
SI_	23	192	3	96	48	0
HLD	24	0	2	96
STR	24	0	3
SI_	24	0	3	96	48	7
HLD	24	192	1	48
HLD	24	192	3	48
TAP	24	288	1
TAP	24	288	3
STR	25	0	4
SI_	25	0	4	96	48	2
HLD	25	0	5	96
STR	25	192	4
SI_	25	192	4	96	48	6
HLD	25	192	5	96
STR	26	0	4
SI_	26	0	4	96	48	2
HLD	26	0	5	96
STR	26	192	4
SI_	26	192	4	96	48	6
HLD	26	192	5	96
STR	27	0	4
SI_	27	0	4	96	48	1
HLD	27	0	5	96
STR	27	192	4
SI_	27	192	4	96	48	7
HLD	27	192	5	96
TAP	28	0	0
TAP	28	48	0
TAP	28	96	3
TAP	28	144	3
TAP	28	192	0
TAP	28	240	0
BRK	28	288	1
BRK	28	288	2
TAP	29	0	2
TAP	29	0	3
TAP	29	96	3
TAP	29	96	6
TAP	29	192	2
TAP	29	192	3
TAP	29	288	3
TAP	29	288	7
TAP	30	0	2
TAP	30	0	3
HLD	30	96	3	48
HLD	30	96	5	48
HLD	30	192	4	48
HLD	30	192	6	48
TAP	30	288	5
TAP	30	288	7
TAP	31	0	4
TAP	31	0	5
TAP	31	96	1
TAP	31	96	4
TAP	31	192	4
TAP	31	192	5
TAP	31	288	0
TAP	31	288	4
TAP	32	0	4
TAP	32	0	5
HLD	32	96	2	48
HLD	32	96	4	48
HLD	32	192	1	48
HLD	32	192	3	48
TAP	32	288	0
TAP	32	288	2
TAP	33	0	2
TAP	33	0	3
TAP	33	96	3
TAP	33	96	6
TAP	33	192	2
TAP	33	192	3
TAP	33	288	3
TAP	33	288	7
TAP	34	0	2
TAP	34	0	3
HLD	34	96	3	48
HLD	34	96	5	48
HLD	34	192	4	48
HLD	34	192	6	48
TAP	34	288	5
TAP	34	288	7
TAP	35	0	3
TAP	35	0	5
HLD	35	48	3	48
HLD	35	48	5	48
TAP	35	192	1
TAP	35	192	3
HLD	35	240	1	48
HLD	35	240	3	48
TAP	36	0	3
TAP	36	0	7
HLD	36	48	3	48
HLD	36	48	7	48
TAP	36	192	3
TAP	36	192	4
TAP	36	240	3
TAP	36	240	4
TAP	36	288	2
TAP	36	288	5
STR	37	0	2
SCL	37	0	2	96	48	0
STR	37	144	4
SCR	37	144	4	96	48	7
STR	37	288	3
SCL	37	288	3	96	48	0
TAP	38	0	6
TAP	38	48	6
TAP	38	96	6
HLD	38	192	4	96
TAP	38	192	5
TAP	38	288	7
STR	39	0	2
SCL	39	0	2	96	48	0
STR	39	144	4
SCR	39	144	4	96	48	7
STR	39	288	3
SCL	39	288	3	96	48	0
TAP	40	0	6
TAP	40	96	5
TAP	40	96	6
TAP	40	192	4
TAP	40	192	7
TAP	40	240	4
TAP	40	240	7
TAP	40	288	4
TAP	40	288	7
TAP	40	336	4
TAP	40	336	7
STR	41	0	5
SCR	41	0	5	96	48	7
STR	41	144	3
SCL	41	144	3	96	48	0
STR	41	288	4
SCR	41	288	4	96	48	7
TAP	42	0	1
TAP	42	48	1
TAP	42	96	1
TAP	42	192	2
HLD	42	192	3	96
TAP	42	288	0
TAP	43	0	0
TAP	43	0	4
TAP	43	48	0
TAP	43	48	4
TAP	43	96	1
TAP	43	96	5
TAP	43	144	1
TAP	43	144	5
BST	43	192	6
SI_	43	192	6	96	48	3
BST	43	192	7
SI_	43	192	7	96	48	2
TAP	44	0	3
TAP	44	0	4
TAP	44	48	3
TAP	44	48	4
BRK	44	96	1
BRK	44	96	2
TAP	44	192	3
TAP	44	192	4
TAP	44	240	3
TAP	44	240	4
TAP	44	288	3
TAP	44	288	4
TAP	44	336	3
TAP	44	336	4
HLD	45	0	5	96
HLD	45	96	7	96
STR	45	192	0
SUL	45	192	0	96	48	3
TAP	45	288	1
HLD	46	0	2	96
HLD	46	96	0	96
HLD	46	192	6	96
TAP	46	240	4
TAP	46	288	4
HLD	47	0	2	96
HLD	47	96	0	96
STR	47	192	7
SUR	47	192	7	96	48	4
TAP	47	288	6
HLD	48	0	5	96
HLD	48	96	7	96
HLD	48	192	1	96
TAP	48	240	3
TAP	48	288	3
HLD	49	0	5	96
HLD	49	96	7	96
STR	49	192	0
SUL	49	192	0	96	48	3
TAP	49	288	1
HLD	50	0	2	96
HLD	50	96	0	96
HLD	50	192	6	96
TAP	50	240	4
TAP	50	288	4
BRK	51	0	0
TAP	51	48	0
TAP	51	96	0
TAP	51	144	0
TAP	51	192	6
TAP	51	240	6
TAP	51	288	6
TAP	51	336	6
BRK	52	0	2
TAP	52	48	2
TAP	52	96	2
TAP	52	144	2
TAP	52	192	4
TAP	52	240	4
TAP	52	288	4
TAP	52	336	4
HLD	53	0	3	288
TAP	53	96	2
TAP	53	144	2
TAP	53	192	2
HLD	53	288	4	288
TAP	54	0	5
TAP	54	48	5
TAP	54	96	5
HLD	54	192	3	288
TAP	54	288	1
TAP	54	336	1
TAP	55	0	1
HLD	55	96	4	288
TAP	55	192	6
TAP	55	240	6
TAP	55	288	6
HLD	56	0	0	288
TAP	56	96	1
TAP	56	144	1
TAP	56	192	1
HLD	56	288	7	288
TAP	57	0	6
TAP	57	48	6
TAP	57	96	6
HLD	57	192	0	288
TAP	57	288	2
TAP	57	336	2
TAP	58	0	2
HLD	58	96	7	96
HLD	58	192	6	96
TAP	58	288	5
STR	59	0	0
SUL	59	0	0	96	192	4
TAP	59	96	3
TAP	59	144	3
TAP	59	192	3
STR	59	288	7
SUR	59	288	7	96	192	3
TAP	60	0	4
TAP	60	48	4
TAP	60	96	4
STR	60	192	0
SUL	60	192	0	96	192	3
TAP	60	288	2
TAP	60	336	2
TAP	61	0	2
STR	61	96	7
SUR	61	96	7	96	192	4
TAP	61	192	5
TAP	61	240	5
TAP	61	288	5
STR	62	0	5
SUL	62	0	5	96	192	0
TAP	62	96	7
TAP	62	144	7
TAP	62	192	7
STR	62	288	2
SUR	62	288	2	96	192	7
TAP	63	0	0
TAP	63	48	0
TAP	63	96	0
STR	63	192	5
SUL	63	192	5	96	192	7
TAP	63	288	6
TAP	63	336	6
TAP	64	0	6
HLD	64	96	2	96
HLD	64	192	1	96
TAP	64	288	0
STR	65	0	0
SCR	65	0	0	96	192	7
STR	65	0	7
SUR	65	0	7	96	192	0
TAP	66	0	0
TAP	66	0	7
TAP	66	96	2
TAP	66	96	5
TAP	66	192	3
TAP	66	216	4
TAP	66	240	3
TAP	66	264	4
TAP	66	288	3
STR	67	0	3
SI_	67	0	3	96	48	1
TAP	67	0	4
TAP	67	96	7
STR	67	192	0
SI_	67	192	0	96	48	2
TAP	67	192	4
TAP	67	288	7
STR	68	0	3
SI_	68	0	3	96	48	1
TAP	68	0	4
TAP	68	96	7
STR	68	192	0
SI_	68	192	0	96	48	2
TAP	68	192	4
TAP	68	288	7
STR	69	0	3
SI_	69	0	3	96	48	1
TAP	69	0	4
TAP	69	96	7
TAP	69	192	0
TAP	69	192	4
TAP	69	288	2
TAP	69	288	7
STR	70	0	2
SCL	70	0	2	96	192	5
STR	70	0	3
SUL	70	0	3	96	192	4
TAP	71	0	3
STR	71	0	4
SI_	71	0	4	96	48	6
TAP	71	96	0
TAP	71	192	3
STR	71	192	7
SI_	71	192	7	96	48	5
TAP	71	288	0
TAP	72	0	3
STR	72	0	4
SI_	72	0	4	96	48	6
TAP	72	96	0
TAP	72	192	3
STR	72	192	7
SI_	72	192	7	96	48	5
TAP	72	288	0
TAP	73	0	3
STR	73	0	4
SI_	73	0	4	96	48	6
TAP	73	96	0
TAP	73	192	3
TAP	73	192	7
TAP	73	288	0
TAP	73	288	5
TAP	74	0	1
TAP	74	0	6
HLD	74	192	2	48
HLD	74	192	5	48
TAP	74	288	2
TAP	74	288	5
TAP	75	0	2
STR	75	0	3
SI_	75	0	3	96	48	5
TAP	75	96	7
TAP	75	192	2
STR	75	192	6
SI_	75	192	6	96	48	4
TAP	75	288	7
TAP	76	0	2
STR	76	0	3
SI_	76	0	3	96	48	5
TAP	76	96	7
TAP	76	192	2
STR	76	192	6
SI_	76	192	6	96	48	4
TAP	76	288	7
TAP	77	0	2
STR	77	0	3
SI_	77	0	3	96	48	5
TAP	77	96	7
TAP	77	192	2
TAP	77	192	6
TAP	77	288	4
TAP	77	288	7
STR	78	0	2
SCL	78	0	2	96	192	5
STR	78	0	3
SUL	78	0	3	96	192	4
STR	79	0	4
SI_	79	0	4	96	48	2
TAP	79	0	5
TAP	79	96	0
STR	79	192	1
SI_	79	192	1	96	48	3
TAP	79	192	5
TAP	79	288	0
STR	80	0	4
SI_	80	0	4	96	48	2
TAP	80	0	5
TAP	80	96	0
TAP	80	192	1
TAP	80	192	5
TAP	80	288	0
TAP	80	288	3
BRK	81	0	5
TAP	81	48	5
TAP	81	96	6
TAP	81	144	6
TAP	81	192	4
TAP	81	240	4
TAP	81	288	7
TAP	81	336	7
BRK	82	0	3
TAP	82	48	3
TAP	82	96	0
TAP	82	144	0
TAP	82	192	2
TAP	82	240	2
TAP	82	288	1
TAP	82	336	1
BRK	83	0	0
BRK	83	0	3
TAP	83	48	0
TAP	83	48	3
TAP	83	96	0
TAP	83	96	3
TAP	83	144	0
TAP	83	144	3
BRK	83	192	4
BRK	83	192	7
TAP	83	240	4
TAP	83	240	7
TAP	83	288	4
TAP	83	288	7
TAP	83	336	4
TAP	83	336	7
BRK	84	0	5
BRK	84	0	6
HLD	84	192	0	48
HLD	84	192	4	48
BRK	84	288	2
BRK	84	288	6
STR	85	0	3
SI_	85	0	3	96	48	0
TAP	85	0	4
TAP	85	96	5
TAP	85	192	2
STR	85	192	3
SI_	85	192	3	96	48	6
TAP	85	288	1
TAP	86	0	2
TAP	86	0	3
HLD	86	96	2	48
HLD	86	96	4	48
HLD	86	192	1	48
HLD	86	192	3	48
TAP	86	288	0
TAP	86	288	2
TAP	87	0	0
STR	87	0	7
SI_	87	0	7	96	48	4
TAP	87	96	1
TAP	87	192	6
STR	87	192	7
SI_	87	192	7	96	48	2
TAP	87	288	5
STR	88	0	7
SUL	88	0	7	96	48	2
STR	88	96	1
SUL	88	96	1	96	48	4
TAP	88	288	6
TAP	88	288	7
TAP	89	0	3
STR	89	0	4
SI_	89	0	4	96	48	7
TAP	89	96	2
STR	89	192	4
SI_	89	192	4	96	48	1
TAP	89	192	5
TAP	89	288	6
TAP	90	0	4
TAP	90	0	5
HLD	90	96	3	48
HLD	90	96	5	48
HLD	90	192	4	48
HLD	90	192	6	48
TAP	90	288	5
TAP	90	288	7
TAP	91	0	4
TAP	91	0	7
HLD	91	48	4	48
HLD	91	48	7	48
TAP	91	192	2
TAP	91	192	6
HLD	91	240	2	48
HLD	91	240	6	48
TAP	92	0	1
TAP	92	0	3
HLD	92	48	1	48
HLD	92	48	3	48
TAP	92	192	4
TAP	92	192	5
TAP	92	240	4
TAP	92	240	5
TAP	92	288	3
TAP	92	288	6
STR	93	0	0
SUR	93	0	0	96	48	4
STR	93	0	1
SCR	93	0	1	96	48	4
TAP	93	48	0
TAP	93	48	1
STR	93	192	6
SCL	93	192	6	96	48	3
STR	93	192	7
SUL	93	192	7	96	48	3
TAP	93	240	6
TAP	93	240	7
HLD	94	0	0	96
HLD	94	0	7	96
TAP	94	192	3
TAP	94	192	4
BRK	94	288	1
BRK	94	288	2
TAP	95	0	5
TAP	95	0	6
TAP	95	72	6
TAP	95	72	7
TAP	95	144	0
TAP	95	144	7
TAP	95	192	0
TAP	95	192	7
TAP	95	288	1
TAP	95	288	5
TAP	96	0	0
TAP	96	0	4
TAP	96	48	0
TAP	96	48	4
TAP	96	96	3
TAP	96	96	7
TAP	96	144	3
TAP	96	144	7
BRK	96	192	0
BRK	96	192	5
BRK	96	288	2
BRK	96	288	7
BST	97	0	0
SSL	97	0	0	96	240	4
BRK	97	0	4

T_REC_TAP	383
T_REC_BRK	23
T_REC_XTP	0
T_REC_HLD	104
T_REC_XHO	0
T_REC_STR	87
T_REC_BST	3
T_REC_XST	0
T_REC_TTP	0
T_REC_THO	0
T_REC_SLD	90
T_REC_ALL	690
T_NUM_TAP	470
T_NUM_BRK	26
T_NUM_HLD	104
T_NUM_SLD	90
T_NUM_ALL	690
T_JUDGE_TAP	496
T_JUDGE_HLD	192
T_JUDGE_SLD	90
T_JUDGE_ALL	778
TTM_EACHPAIRS	201
TTM_SCR_TAP	235000
TTM_SCR_BRK	67600
TTM_SCR_HLD	104000
TTM_SCR_SLD	135000
TTM_SCR_ALL	541600
TTM_SCR_S	522850
TTM_SCR_SS	539000
TTM_RAT_ACV	10048

