VERSION	0.00.00	1.03.00
FES_MODE	0
BPM_DEF	200.000	200.000	200.000	200.000
MET_DEF	4	4
RESOLUTION	384
CLK_DEF	384
COMPATIBLE_CODE	MA2

BPM	0	0	200.000
MET	0	0	4	4
MET	53	0	4	3
MET	65	0	4	4

STR	1	0	3
SCL	1	0	3	96	576	4
STR	3	0	3
SUR	3	0	3	96	480	4
TAP	5	0	2
TAP	5	96	3
TAP	5	192	1
TAP	5	192	4
TAP	6	0	5
TAP	6	96	4
TAP	6	192	3
TAP	6	192	6
TAP	6	288	7
TAP	7	0	0
TAP	7	96	1
TAP	7	192	2
TAP	7	192	7
TAP	8	0	0
TAP	8	96	7
TAP	8	192	1
TAP	8	192	6
TAP	9	0	5
TAP	9	96	4
TAP	9	192	3
TAP	9	192	6
TAP	10	0	2
TAP	10	96	3
TAP	10	192	1
TAP	10	192	4
TAP	10	288	1
TAP	10	288	4
HLD	11	0	2	96
TAP	11	96	3
HLD	11	192	5	96
TAP	11	288	4
TAP	12	0	3
TAP	12	96	2
TAP	12	96	4
BRK	12	192	1
BRK	12	192	5
HLD	13	0	4	96
HLD	13	0	5	96
TAP	13	192	4
TAP	13	192	5
TAP	13	288	3
TAP	13	288	6
TAP	14	0	2
TAP	14	96	3
TAP	14	192	1
TAP	14	192	4
HLD	15	0	2	96
HLD	15	0	3	96
TAP	15	192	2
TAP	15	192	3
TAP	15	288	1
TAP	15	288	4
STR	16	0	4
SI_	16	0	4	96	144	1
STR	16	0	5
SI_	16	0	5	96	144	0
HLD	17	0	0	96
HLD	17	0	1	96
TAP	17	192	0
TAP	17	192	1
TAP	17	288	2
TAP	17	288	7
TAP	18	0	6
TAP	18	96	7
TAP	18	192	0
TAP	18	192	5
HLD	19	0	6	96
HLD	19	0	7	96
TAP	19	192	6
TAP	19	192	7
TAP	19	288	0
TAP	19	288	5
STR	20	0	0
SI_	20	0	0	96	144	5
STR	20	0	1
SI_	20	0	1	96	144	4
HLD	21	0	5	96
TAP	21	96	4
HLD	21	192	2	96
TAP	21	288	3
HLD	22	0	6	192
TAP	22	96	4
TAP	22	192	5
HLD	23	0	2	96
TAP	23	96	3
HLD	23	192	5	96
TAP	23	288	4
HLD	24	0	1	192
TAP	24	96	3
TAP	24	192	2
HLD	25	0	1	96
TAP	25	96	0
HLD	25	192	6	96
TAP	25	288	7
HLD	26	0	2	192
TAP	26	96	0
TAP	26	192	1
HLD	27	0	6	96
TAP	27	96	7
HLD	27	192	1	96
TAP	27	288	0
HLD	28	0	6	288
TAP	28	96	7
TAP	28	192	7
TAP	28	288	7
TAP	29	0	6
TAP	29	96	7
TAP	29	192	0
TAP	29	192	5
TAP	30	0	1
TAP	30	96	0
TAP	30	192	2
TAP	30	192	7
TAP	30	288	3
TAP	31	0	4
TAP	31	96	5
TAP	31	192	3
TAP	31	192	6
TAP	32	0	4
TAP	32	96	3
TAP	32	192	2
TAP	32	192	5
TAP	33	0	1
TAP	33	96	0
TAP	33	192	2
TAP	33	192	7
TAP	34	0	6
TAP	34	96	7
TAP	34	192	0
TAP	34	192	5
TAP	34	288	0
TAP	34	288	5
HLD	35	0	6	96
TAP	35	96	7
HLD	35	192	1	96
TAP	35	288	0
TAP	36	0	7
TAP	36	96	0
TAP	36	96	6
BRK	36	192	1
BRK	36	192	5
HLD	37	0	2	96
HLD	37	0	3	96
TAP	37	192	2
TAP	37	192	3
TAP	37	288	1
TAP	37	288	4
TAP	38	0	5
TAP	38	96	4
TAP	38	192	3
TAP	38	192	6
HLD	39	0	4	96
HLD	39	0	5	96
TAP	39	192	4
TAP	39	192	5
TAP	39	288	3
TAP	39	288	6
HLD	40	0	2	96
TAP	40	96	3
TAP	40	192	2
TAP	40	240	2
TAP	40	288	4
TAP	40	336	4
TAP	41	0	3
TAP	41	96	2
TAP	41	96	4
TAP	41	192	4
TAP	41	288	3
TAP	41	288	5
TAP	42	0	2
TAP	42	96	3
TAP	42	192	1
TAP	42	192	4
TAP	43	0	5
TAP	43	48	5
TAP	43	96	3
TAP	43	144	3
TAP	43	192	4
TAP	43	288	3
TAP	43	288	5
TAP	44	0	2
TAP	44	48	2
TAP	44	96	4
TAP	44	192	1
TAP	44	192	3
HLD	45	0	2	96
TAP	45	96	3
HLD	45	192	5	96
TAP	45	288	4
HLD	46	0	1	192
TAP	46	96	3
TAP	46	192	2
HLD	47	0	5	96
TAP	47	96	4
HLD	47	192	2	96
TAP	47	288	3
HLD	48	0	6	192
TAP	48	96	4
TAP	48	192	5
HLD	49	0	6	96
TAP	49	96	7
HLD	49	192	1	96
TAP	49	288	0
HLD	50	0	5	192
TAP	50	96	7
TAP	50	192	6
HLD	51	0	1	288
TAP	51	96	0
TAP	51	192	0
TAP	51	288	0
HLD	52	0	6	288
TAP	52	96	7
TAP	52	192	7
TAP	52	288	7
STR	53	0	0
SI_	53	0	0	96	192	3
STR	53	288	4
SI_	53	288	4	96	192	7
STR	54	192	0
SXL	54	192	0	96	384	3
STR	56	0	4
SI_	56	0	4	96	192	7
STR	56	288	0
SI_	56	288	0	96	192	3
STR	57	192	4
SXL	57	192	4	96	384	0
STR	59	0	1
SI_	59	0	1	96	192	6
STR	59	288	5
SI_	59	288	5	96	192	2
STR	60	192	1
SXR	60	192	1	96	384	6
STR	62	0	5
SI_	62	0	5	96	192	2
STR	62	288	1
SI_	62	288	1	96	192	6
STR	63	192	5
SXR	63	192	5	96	384	7
BRK	65	0	0
TAP	66	0	0
TAP	66	96	0
TAP	66	192	7
TAP	66	240	7
TAP	66	288	0
TAP	67	0	4
TAP	67	0	5
TAP	67	96	7
TAP	67	192	4
TAP	67	192	5
TAP	67	288	7
TAP	68	0	2
TAP	68	0	3
TAP	68	96	0
TAP	68	192	2
TAP	68	192	3
TAP	68	288	0
TAP	69	0	4
TAP	69	0	5
TAP	69	96	7
TAP	69	192	2
TAP	69	192	3
TAP	69	288	0
STR	70	0	6
SI_	70	0	6	96	144	3
STR	70	0	7
SI_	70	0	7	96	144	2
TAP	71	0	4
TAP	71	0	5
TAP	71	96	6
TAP	71	192	4
TAP	71	192	5
TAP	71	288	6
TAP	72	0	2
TAP	72	0	3
TAP	72	96	1
TAP	72	192	2
TAP	72	192	3
TAP	72	288	1
TAP	73	0	4
TAP	73	0	5
TAP	73	96	6
TAP	73	192	2
TAP	73	192	3
TAP	73	288	1
STR	74	0	3
SI_	74	0	3	96	120	1
STR	74	0	4
SI_	74	0	4	96	120	6
TAP	75	0	2
TAP	75	0	3
TAP	75	96	7
TAP	75	192	2
TAP	75	192	3
TAP	75	288	7
TAP	76	0	4
TAP	76	0	5
TAP	76	96	0
TAP	76	192	4
TAP	76	192	5
TAP	76	288	0
TAP	77	0	2
TAP	77	0	3
TAP	77	96	7
TAP	77	192	4
TAP	77	192	5
TAP	77	288	0
STR	78	0	0
SI_	78	0	0	96	144	5
STR	78	0	1
SI_	78	0	1	96	144	4
TAP	79	0	3
TAP	79	0	4
TAP	79	96	0
TAP	79	96	1
TAP	79	192	3
TAP	79	192	4
TAP	79	288	0
TAP	79	288	1
TAP	80	0	3
TAP	80	0	4
TAP	80	96	6
TAP	80	96	7
TAP	80	192	3
TAP	80	192	4
TAP	80	288	6
TAP	80	288	7
TAP	81	0	3
TAP	81	0	4
TAP	81	96	0
TAP	81	96	1
TAP	81	192	3
TAP	81	192	4
TAP	81	288	6
TAP	81	288	7
TAP	82	0	3
TAP	82	0	4
TAP	82	96	0
TAP	82	96	2
TAP	82	192	3
TAP	82	192	4
TAP	82	288	5
TAP	82	288	7
TAP	83	0	3
TAP	83	0	4
TAP	83	96	2
TAP	83	96	6
TAP	83	192	3
TAP	83	192	4
STR	83	288	1
SXL	83	288	1	96	192	3
STR	83	288	5
SXL	83	288	5	96	192	7
TAP	85	0	1
TAP	85	96	0
TAP	85	96	1
TAP	85	192	2
TAP	85	192	7
TAP	86	0	6
TAP	86	96	6
TAP	86	96	7
TAP	86	192	0
TAP	86	192	5
TAP	86	288	4
TAP	87	0	3
TAP	87	96	2
TAP	87	96	3
TAP	87	192	1
TAP	87	192	4
TAP	88	0	3
TAP	88	0	4
TAP	88	96	1
TAP	88	96	3
TAP	88	192	4
TAP	88	192	6
TAP	89	0	6
TAP	89	96	6
TAP	89	96	7
TAP	89	192	0
TAP	89	192	5
TAP	90	0	1
TAP	90	96	0
TAP	90	96	1
TAP	90	192	2
TAP	90	192	7
TAP	90	288	2
TAP	90	288	7
HLD	91	0	1	96
TAP	91	96	0
HLD	91	192	6	96
TAP	91	288	7
TAP	92	0	0
TAP	92	96	1
TAP	92	96	7
BRK	92	192	2
BRK	92	192	6
HLD	93	0	2	96
TAP	93	96	3
HLD	93	192	5	96
TAP	93	288	4
HLD	94	0	2	96
HLD	94	96	1	96
HLD	94	192	0	96
TAP	94	288	7
HLD	95	0	5	96
HLD	95	96	6	96
HLD	95	192	7	96
TAP	95	288	0
TAP	96	0	1
TAP	96	0	5
TAP	96	96	2
TAP	96	96	6
TAP	96	192	3
TAP	96	192	7
TAP	96	288	2
TAP	96	288	6
BST	97	0	1
SXL	97	0	1	96	192	3
BST	97	0	5
SXL	97	0	5	96	192	7

T_REC_TAP	310
T_REC_BRK	7
T_REC_XTP	0
T_REC_HLD	50
T_REC_XHO	0
T_REC_STR	26
T_REC_BST	2
T_REC_XST	0
T_REC_TTP	0
T_REC_THO	0
T_REC_SLD	28
T_REC_ALL	423
T_NUM_TAP	336
T_NUM_BRK	9
T_NUM_HLD	50
T_NUM_SLD	28
T_NUM_ALL	423
T_JUDGE_TAP	345
T_JUDGE_HLD	124
T_JUDGE_SLD	28
T_JUDGE_ALL	497
TTM_EACHPAIRS	108
TTM_SCR_TAP	168000
TTM_SCR_BRK	23400
TTM_SCR_HLD	50000
TTM_SCR_SLD	42000
TTM_SCR_ALL	283400
TTM_SCR_S	274050
TTM_SCR_SS	282500
TTM_RAT_ACV	10031

