VERSION	0.00.00	1.03.00
FES_MODE	0
BPM_DEF	200.000	200.000	200.000	200.000
MET_DEF	4	4
RESOLUTION	384
CLK_DEF	384
COMPATIBLE_CODE	MA2

BPM	0	0	200.000
MET	0	0	4	4
MET	53	0	4	3
MET	65	0	4	4

TAP	5	0	0
TAP	5	96	0
TAP	5	192	0
TAP	5	288	0
HLD	6	0	0	192
TAP	7	0	7
TAP	7	96	7
TAP	7	192	7
TAP	7	288	7
HLD	8	0	7	192
TAP	9	0	0
TAP	9	96	0
TAP	9	192	1
TAP	9	288	1
HLD	10	0	2	192
TAP	11	0	7
TAP	11	96	7
TAP	11	192	6
TAP	11	288	6
TAP	12	0	5
TAP	12	96	5
BRK	12	192	4
BRK	12	192	5
TAP	13	0	3
TAP	13	192	2
TAP	13	192	4
TAP	14	0	1
TAP	14	192	0
TAP	14	192	2
TAP	15	0	7
TAP	15	192	0
TAP	15	192	6
TAP	16	0	5
TAP	16	192	4
TAP	16	192	6
TAP	17	0	4
TAP	17	192	3
TAP	17	192	5
TAP	18	0	6
TAP	18	192	5
TAP	18	192	7
TAP	19	0	0
TAP	19	192	1
TAP	19	192	7
TAP	20	0	2
TAP	20	192	1
TAP	20	192	3
TAP	21	0	4
TAP	21	96	4
TAP	21	192	5
TAP	21	288	5
TAP	22	0	6
TAP	22	96	7
TAP	22	192	6
TAP	23	0	0
TAP	23	96	0
TAP	23	192	1
TAP	23	288	1
TAP	24	0	2
TAP	24	96	3
TAP	24	192	2
TAP	25	0	3
TAP	25	96	3
TAP	25	192	2
TAP	25	288	2
TAP	26	0	1
TAP	26	96	0
TAP	26	192	1
TAP	27	0	7
TAP	27	96	7
TAP	27	192	6
TAP	27	288	6
TAP	28	0	5
TAP	28	96	4
BRK	28	192	5
TAP	29	0	3
TAP	29	96	3
TAP	29	192	4
TAP	29	288	4
TAP	30	0	3
TAP	30	0	5
TAP	30	96	3
TAP	30	96	5
TAP	30	192	3
TAP	30	192	5
TAP	31	0	4
TAP	31	96	4
TAP	31	192	3
TAP	31	288	3
TAP	32	0	2
TAP	32	0	4
TAP	32	96	2
TAP	32	96	4
TAP	32	192	2
TAP	32	192	4
TAP	33	0	1
TAP	33	96	1
TAP	33	192	0
TAP	33	288	0
TAP	34	0	1
TAP	34	0	7
TAP	34	96	1
TAP	34	96	7
TAP	34	192	1
TAP	34	192	7
TAP	35	0	6
TAP	35	96	6
TAP	35	192	7
TAP	35	288	7
TAP	36	0	0
TAP	36	0	6
TAP	36	96	0
TAP	36	96	6
BRK	36	192	0
BRK	36	192	6
TAP	37	0	0
TAP	37	192	0
TAP	37	192	1
TAP	38	0	2
TAP	38	96	3
TAP	38	192	2
TAP	39	0	4
TAP	39	0	5
TAP	39	192	6
TAP	40	0	7
TAP	40	96	7
TAP	40	192	0
TAP	40	288	0
TAP	41	0	7
TAP	41	192	6
TAP	41	192	7
TAP	42	0	5
TAP	42	96	4
TAP	42	192	5
TAP	43	0	2
TAP	43	0	3
TAP	43	192	1
TAP	44	0	0
TAP	44	96	0
TAP	44	192	7
BRK	44	288	7
STR	45	0	0
SI_	45	0	0	96	288	5
STR	47	0	7
SI_	47	0	7	96	288	2
STR	49	0	1
SI_	49	0	1	96	288	4
STR	51	0	6
SI_	51	0	6	96	288	3
HLD	53	0	2	288
HLD	54	192	5	288
HLD	56	0	2	288
HLD	56	0	4	288
HLD	57	192	3	288
HLD	57	192	5	288
TAP	59	0	3
TAP	59	96	3
TAP	59	288	4
TAP	60	0	4
TAP	60	192	2
TAP	60	192	3
TAP	60	288	2
TAP	60	288	3
TAP	61	96	4
TAP	61	96	5
TAP	61	192	4
TAP	61	192	5
TAP	62	0	2
TAP	62	96	2
TAP	62	192	2
TAP	62	288	3
TAP	63	0	3
TAP	63	96	3
TAP	63	192	4
TAP	63	288	4
TAP	64	0	4
TAP	64	96	5
TAP	64	192	5
TAP	64	288	5
STR	65	0	6
SI_	65	0	6	96	288	2
TAP	67	0	0
TAP	67	96	0
TAP	67	192	0
TAP	67	192	1
TAP	68	0	7
TAP	68	96	7
TAP	68	192	6
TAP	68	192	7
TAP	69	0	0
TAP	69	96	0
TAP	69	192	1
TAP	69	288	1
HLD	70	0	2	192
TAP	71	0	3
TAP	71	96	3
TAP	71	192	2
TAP	71	192	3
TAP	72	0	4
TAP	72	96	4
TAP	72	192	4
TAP	72	192	5
TAP	73	0	3
TAP	73	96	3
TAP	73	192	4
TAP	73	288	4
HLD	74	0	5	192
TAP	75	0	7
TAP	75	96	7
TAP	75	192	6
TAP	75	192	7
TAP	76	0	0
TAP	76	96	0
TAP	76	192	0
TAP	76	192	1
TAP	77	0	7
TAP	77	96	0
TAP	77	192	7
TAP	77	288	0
HLD	78	0	7	192
TAP	79	0	7
TAP	79	96	7
TAP	79	192	0
TAP	79	192	6
TAP	80	0	0
TAP	80	96	0
TAP	80	192	1
TAP	80	192	7
TAP	81	0	7
TAP	81	96	7
TAP	81	192	7
TAP	81	288	7
TAP	82	0	6
TAP	82	96	6
TAP	82	192	6
TAP	82	288	6
TAP	83	0	5
TAP	83	96	5
TAP	83	192	4
TAP	83	288	4
TAP	84	0	3
TAP	84	96	2
TAP	84	192	1
BRK	84	288	0
TAP	85	0	7
TAP	85	96	7
TAP	85	192	0
TAP	85	288	0
TAP	86	0	6
TAP	86	96	7
TAP	86	192	6
TAP	86	288	7
TAP	87	0	0
TAP	87	96	0
TAP	87	192	7
TAP	87	288	7
TAP	88	0	1
TAP	88	96	0
TAP	88	96	1
BRK	88	192	0
BRK	88	192	1
TAP	89	0	3
TAP	89	96	3
TAP	89	192	4
TAP	89	288	4
TAP	90	0	2
TAP	90	96	3
TAP	90	192	2
TAP	90	288	3
TAP	91	0	4
TAP	91	96	4
TAP	91	192	3
TAP	91	288	3
TAP	92	0	4
TAP	92	96	4
TAP	92	96	5
BRK	92	192	4
BRK	92	192	5
TAP	93	0	6
TAP	93	96	6
TAP	93	96	7
TAP	93	288	6
TAP	93	288	7
TAP	94	96	0
TAP	94	96	1
TAP	94	288	0
TAP	94	288	1
TAP	95	0	7
TAP	95	96	7
TAP	95	192	0
TAP	95	288	0
HLD	96	0	1	192
HLD	96	0	6	192
STR	97	0	0
SI_	97	0	0	96	288	3
STR	97	0	7
SI_	97	0	7	96	288	4

T_REC_TAP	258
T_REC_BRK	11
T_REC_XTP	0
T_REC_HLD	14
T_REC_XHO	0
T_REC_STR	7
T_REC_BST	0
T_REC_XST	0
T_REC_TTP	0
T_REC_THO	0
T_REC_SLD	7
T_REC_ALL	297
T_NUM_TAP	265
T_NUM_BRK	11
T_NUM_HLD	14
T_NUM_SLD	7
T_NUM_ALL	297
T_JUDGE_TAP	276
T_JUDGE_HLD	68
T_JUDGE_SLD	7
T_JUDGE_ALL	351
TTM_EACHPAIRS	49
TTM_SCR_TAP	132500
TTM_SCR_BRK	28600
TTM_SCR_HLD	14000
TTM_SCR_SLD	10500
TTM_SCR_ALL	185600
TTM_SCR_S	179000
TTM_SCR_SS	184500
TTM_RAT_ACV	10059

