VERSION	0.00.00	1.03.00
FES_MODE	0
BPM_DEF	180.000	180.000	180.000	180.000
MET_DEF	4	4
RESOLUTION	384
CLK_DEF	384
COMPATIBLE_CODE	MA2

BPM	0	0	180.000
MET	0	0	4	4

HLD	1	0	0	384
TAP	1	0	7
TAP	1	96	7
TAP	1	144	6
TAP	1	192	5
TAP	1	240	4
TAP	1	288	3
STR	2	0	2
SCR	2	0	2	96	576	7
TAP	2	96	0
TAP	2	192	1
TAP	2	288	2
TAP	3	0	3
TAP	3	96	4
TAP	3	192	5
TAP	4	0	0
TAP	4	0	1
TAP	4	96	6
TAP	4	96	7
TAP	4	192	0
HLD	4	192	1	96
TAP	4	288	2
STR	4	336	2
SUR	4	336	2	96	144	5
TAP	5	96	0
TAP	5	192	0
TAP	5	240	7
BRK	5	288	7
TAP	6	0	6
TAP	6	0	7
TAP	6	96	0
TAP	6	96	1
HLD	6	192	6	96
TAP	6	192	7
TAP	6	288	5
STR	6	336	5
SUL	6	336	5	96	144	2
TAP	7	96	7
TAP	7	192	7
TAP	7	240	0
BRK	7	288	0
TAP	8	0	2
TAP	8	0	3
TAP	8	96	4
TAP	8	96	5
HLD	8	192	2	96
TAP	8	192	3
TAP	8	288	1
STR	8	336	1
SUL	8	336	1	96	144	6
TAP	9	96	3
TAP	9	192	3
TAP	9	240	4
BRK	9	288	4
TAP	10	0	4
TAP	10	0	5
TAP	10	96	2
TAP	10	96	3
TAP	10	192	4
HLD	10	192	5	96
TAP	10	288	6
STR	10	336	6
SUR	10	336	6	96	144	1
TAP	11	96	4
TAP	11	192	4
TAP	11	240	3
BRK	11	288	3
TAP	12	0	3
TAP	12	0	6
TAP	12	96	5
TAP	12	96	7
TAP	12	192	1
TAP	12	192	4
TAP	12	288	0
STR	12	288	2
SCR	12	288	2	96	48	5
STR	13	0	6
SCL	13	0	6	96	72	1
STR	13	96	0
SCR	13	96	0	96	96	7
TAP	13	192	7
TAP	13	288	0
TAP	14	0	0
TAP	14	0	5
TAP	14	96	4
TAP	14	96	6
TAP	14	192	2
TAP	14	192	7
TAP	14	288	1
TAP	14	288	3
TAP	15	0	0
TAP	15	0	1
TAP	15	48	6
TAP	15	48	7
TAP	15	96	4
TAP	15	96	5
TAP	15	144	2
TAP	15	144	3
STR	15	192	0
SV_	15	192	0	96	48	5
STR	15	192	1
SUR	15	192	1	96	72	5
TAP	16	0	3
TAP	16	0	7
TAP	16	96	2
TAP	16	96	6
TAP	16	192	1
TAP	16	192	5
STR	16	288	0
SCR	16	288	0	96	48	3
STR	16	288	4
SCR	16	288	4	96	48	7
STR	17	0	0
SUL	17	0	0	96	48	4
STR	17	0	4
SUL	17	0	4	96	48	0
STR	17	96	0
SCR	17	96	0	96	48	3
STR	17	96	4
SCR	17	96	4	96	48	7
STR	17	192	0
SUL	17	192	0	96	48	4
STR	17	192	4
SUL	17	192	4	96	48	0
TAP	17	288	0
TAP	17	288	4
TAP	18	0	0
TAP	18	0	4
TAP	18	96	2
TAP	18	96	6
TAP	18	192	1
TAP	18	192	5
TAP	18	288	3
TAP	18	288	7
TAP	19	0	1
TAP	19	0	6
TAP	19	48	1
TAP	19	48	6
STR	19	96	0
SSL	19	96	0	96	96	4
STR	19	96	7
SSR	19	96	7	96	96	3
TAP	19	144	0
TAP	19	144	7
TAP	19	192	0
TAP	19	192	7
STR	20	0	0
SI_	20	0	0	96	48	4
TAP	20	48	0
TAP	20	96	0
TAP	20	96	7
STR	20	192	7
SI_	20	192	7	96	48	3
TAP	20	240	7
TAP	20	288	1
TAP	20	288	7
STR	21	0	1
SI_	21	0	1	96	48	5
TAP	21	48	1
TAP	21	96	1
TAP	21	96	6
STR	21	192	6
SI_	21	192	6	96	48	2
TAP	21	240	6
TAP	21	288	3
TAP	21	288	6
STR	22	0	3
SI_	22	0	3	96	48	6
TAP	22	48	3
TAP	22	96	3
TAP	22	96	4
STR	22	192	4
SI_	22	192	4	96	48	1
TAP	22	240	4
TAP	22	288	2
TAP	22	288	4
TAP	23	0	0
TAP	23	0	2
TAP	23	48	1
TAP	23	48	7
TAP	23	96	0
TAP	23	96	6
TAP	23	144	5
TAP	23	144	7
TAP	23	192	3
TAP	23	192	4
BRK	23	288	1
BRK	23	288	6
STR	24	0	7
SUL	24	0	7	96	48	3
TAP	24	48	7
TAP	24	96	0
TAP	24	144	0
STR	24	192	0
SUR	24	192	0	96	48	4
TAP	24	240	0
TAP	24	288	6
TAP	24	336	6
STR	25	0	6
SUL	25	0	6	96	48	2
TAP	25	48	6
TAP	25	96	1
TAP	25	144	1
STR	25	192	1
SI_	25	192	1	96	48	5
STR	25	192	7
SI_	25	192	7	96	48	3
TAP	25	240	1
TAP	25	240	7
TAP	25	288	1
TAP	25	288	7
STR	26	0	2
SI_	26	0	2	96	48	6
TAP	26	48	2
TAP	26	96	2
TAP	26	96	4
TAP	26	144	4
STR	26	192	4
SI_	26	192	4	96	48	0
TAP	26	240	4
TAP	26	288	3
TAP	26	288	4
STR	27	0	3
SXR	27	0	3	96	192	0
STR	27	0	7
SXR	27	0	7	96	192	4
TAP	28	0	3
TAP	28	32	3
TAP	28	64	4
TAP	28	96	3
TAP	28	128	3
TAP	28	160	5
TAP	28	192	3
TAP	28	224	3
TAP	28	256	6
TAP	28	288	3
TAP	28	288	7
TAP	29	0	4
TAP	29	32	4
TAP	29	64	3
TAP	29	96	4
TAP	29	128	4
TAP	29	160	2
TAP	29	192	4
TAP	29	224	4
TAP	29	256	1
TAP	29	288	0
TAP	29	288	4
TAP	30	0	0
TAP	30	32	0
TAP	30	64	7
TAP	30	96	0
TAP	30	128	0
TAP	30	160	6
TAP	30	192	0
TAP	30	224	0
TAP	30	256	5
TAP	30	288	0
TAP	30	288	4
TAP	31	0	7
TAP	31	32	7
TAP	31	64	0
TAP	31	96	7
TAP	31	128	7
TAP	31	160	1
TAP	31	192	7
TAP	31	224	7
TAP	31	256	2
TAP	31	288	3
TAP	31	288	7
TAP	32	0	5
TAP	32	48	4
TAP	32	96	3
TAP	32	96	6
TAP	32	144	5
TAP	32	192	2
TAP	32	240	3
TAP	32	288	1
TAP	32	288	4
TAP	32	336	2
TAP	33	0	5
TAP	33	48	4
TAP	33	96	3
TAP	33	96	6
TAP	33	144	5
TAP	33	192	2
TAP	33	240	3
TAP	33	288	1
TAP	33	288	4
TAP	34	0	1
TAP	34	48	0
TAP	34	96	2
TAP	34	96	7
TAP	34	144	1
TAP	34	192	6
TAP	34	240	7
TAP	34	288	0
TAP	34	288	5
TAP	34	336	6
TAP	35	0	1
TAP	35	48	0
TAP	35	96	2
TAP	35	96	7
TAP	35	144	1
TAP	35	192	6
TAP	35	240	7
TAP	35	288	0
TAP	35	288	5
TAP	36	0	0
TAP	36	0	7
TAP	36	32	0
TAP	36	64	0
TAP	36	96	6
TAP	36	128	6
TAP	36	160	6
TAP	36	192	2
TAP	36	224	2
TAP	36	256	2
TAP	36	288	3
TAP	36	288	4
TAP	37	0	3
TAP	37	0	4
TAP	37	32	4
TAP	37	64	4
TAP	37	96	2
TAP	37	128	2
TAP	37	160	2
TAP	37	192	6
TAP	37	224	6
TAP	37	256	6
TAP	37	288	0
TAP	37	288	7
TAP	38	0	1
TAP	38	0	7
TAP	38	32	1
TAP	38	64	1
TAP	38	96	3
TAP	38	128	3
TAP	38	160	3
TAP	38	192	5
TAP	38	224	5
TAP	38	256	5
TAP	38	288	4
TAP	38	288	6
TAP	39	0	0
TAP	39	0	6
TAP	39	32	6
TAP	39	64	6
TAP	39	96	4
TAP	39	128	4
TAP	39	160	4
BRK	39	192	2
BRK	39	224	2
BRK	39	256	2
BRK	39	288	0
BRK	39	320	0
BRK	39	352	0
TAP	40	0	6
TAP	40	48	7
TAP	40	96	0
TAP	40	96	5
TAP	40	144	6
TAP	40	192	1
TAP	40	240	0
TAP	40	288	2
TAP	40	288	7
TAP	40	336	1
TAP	41	0	5
TAP	41	48	4
TAP	41	96	3
TAP	41	96	6
TAP	41	144	5
TAP	41	192	2
TAP	41	240	3
TAP	41	288	1
TAP	41	288	4
TAP	42	0	0
TAP	42	48	7
TAP	42	96	1
TAP	42	96	6
TAP	42	144	4
TAP	42	192	3
TAP	42	240	4
TAP	42	288	2
TAP	42	288	5
TAP	42	336	1
BRK	43	0	0
BRK	43	0	1
BRK	43	48	6
BRK	43	48	7
BRK	43	96	4
BRK	43	96	5
BRK	43	144	2
BRK	43	144	3
BRK	43	192	0
BRK	43	192	1
TAP	43	288	0
TAP	43	288	1
TAP	43	336	2
TAP	43	336	7
STR	44	0	0
SI_	44	0	0	96	48	4
STR	44	0	1
SI_	44	0	1	96	48	5
TAP	44	96	0
TAP	44	96	1
TAP	44	192	2
TAP	44	192	3
STR	44	240	2
SI_	44	240	2	96	48	6
STR	44	240	3
SI_	44	240	3	96	48	7
TAP	44	336	2
TAP	44	336	3
TAP	45	48	1
TAP	45	96	0
TAP	45	96	2
TAP	45	144	3
TAP	45	192	2
TAP	45	192	4
TAP	45	240	5
TAP	45	288	4
HLD	45	288	6	96
STR	46	0	0
SI_	46	0	0	96	48	4
TAP	46	96	0
TAP	46	96	6
STR	46	144	6
SI_	46	144	6	96	48	3
STR	46	240	2
SCL	46	240	2	96	336	6
TAP	46	240	6
TAP	46	336	2
TAP	47	96	3
TAP	47	192	4
TAP	47	288	5
HLD	48	0	5	144
TAP	48	96	4
TAP	48	144	4
TAP	48	240	0
TAP	48	240	1
TAP	48	288	2
TAP	48	288	7
HLD	49	0	2	144
TAP	49	96	3
TAP	49	144	3
TAP	49	240	6
TAP	49	240	7
TAP	49	288	0
TAP	49	288	5
HLD	50	0	5	144
TAP	50	96	4
TAP	50	144	4
TAP	50	240	0
TAP	50	240	1
TAP	50	288	2
TAP	50	288	7
TAP	51	0	3
TAP	51	0	4
TAP	51	48	3
TAP	51	48	4
TAP	51	96	3
TAP	51	96	4
TAP	51	144	3
TAP	51	144	4
TAP	51	240	0
TAP	51	240	7
BRK	51	288	1
BRK	51	288	6
STR	52	0	6
SI_	52	0	6	96	48	2
STR	52	0	7
SI_	52	0	7	96	48	3
TAP	52	96	6
TAP	52	96	7
TAP	52	192	4
TAP	52	192	5
STR	52	240	4
SI_	52	240	4	96	48	0
STR	52	240	5
SI_	52	240	5	96	48	1
TAP	52	336	4
TAP	52	336	5
TAP	53	48	6
TAP	53	96	5
TAP	53	96	7
TAP	53	144	4
TAP	53	192	3
TAP	53	192	5
TAP	53	240	2
HLD	53	288	1	96
TAP	53	288	3
STR	54	0	7
SI_	54	0	7	96	48	3
TAP	54	96	1
TAP	54	96	7
STR	54	144	1
SI_	54	144	1	96	48	4
TAP	54	240	1
STR	54	240	5
SCR	54	240	5	96	336	1
TAP	54	336	5
TAP	55	96	4
TAP	55	192	3
TAP	55	288	2
BRK	56	0	1
BRK	56	0	6
HLD	57	288	4	96
TAP	58	0	0
TAP	58	24	4
TAP	58	48	0
TAP	58	72	4
TAP	58	96	1
TAP	58	120	5
TAP	58	144	1
TAP	58	168	5
TAP	58	192	2
TAP	58	216	6
TAP	58	240	2
TAP	58	264	6
TAP	58	288	3
TAP	58	312	7
TAP	58	336	3
TAP	58	360	7
TAP	59	0	2
TAP	59	24	6
TAP	59	48	2
TAP	59	72	6
TAP	59	96	1
TAP	59	120	5
TAP	59	144	1
TAP	59	168	5
BRK	59	192	0
BRK	59	192	4
BRK	59	240	0
BRK	59	240	4
BRK	59	336	2
BRK	59	336	6
TAP	60	0	7
TAP	60	24	3
TAP	60	48	7
TAP	60	72	3
TAP	60	96	6
TAP	60	120	2
TAP	60	144	6
TAP	60	168	2
TAP	60	192	5
TAP	60	216	1
TAP	60	240	5
TAP	60	264	1
HLD	60	288	4	48
TAP	60	336	0
TAP	60	360	4
TAP	61	0	1
TAP	61	24	5
TAP	61	48	1
TAP	61	72	5
TAP	61	96	2
TAP	61	120	6
TAP	61	144	2
TAP	61	168	6
BRK	61	192	3
BRK	61	192	7
BRK	61	240	3
BRK	61	240	7
BRK	61	336	1
BRK	61	336	5
STR	62	0	6
SCR	62	0	6	96	48	1
TAP	62	192	2
TAP	62	216	2
TAP	62	240	3
TAP	62	264	3
TAP	62	288	4
TAP	62	312	4
TAP	62	336	5
TAP	62	360	5
TAP	63	0	2
TAP	63	24	2
TAP	63	48	3
TAP	63	72	3
TAP	63	96	4
TAP	63	120	4
TAP	63	144	5
TAP	63	168	5
BRK	63	192	1
BRK	63	192	6
BRK	63	240	1
BRK	63	240	6
BRK	63	336	0
BRK	63	336	7
STR	64	0	6
SI_	64	0	6	96	48	2
STR	64	0	7
SI_	64	0	7	96	48	2
TAP	64	48	6
TAP	64	48	7
TAP	64	96	6
TAP	64	96	7
STR	64	192	0
SI_	64	192	0	96	48	5
STR	64	192	1
SI_	64	192	1	96	48	5
TAP	64	240	0
TAP	64	240	1
TAP	64	288	0
TAP	64	288	1
TAP	65	0	3
TAP	65	24	4
TAP	65	48	3
TAP	65	72	4
TAP	65	96	3
TAP	65	120	4
TAP	65	144	3
TAP	65	168	4
BRK	65	192	2
BRK	65	192	5
BRK	65	240	2
BRK	65	240	5
BRK	65	336	3
BRK	65	336	4
TAP	66	0	3
TAP	66	24	4
TAP	66	48	3
TAP	66	72	5
TAP	66	96	3
TAP	66	120	6
TAP	66	144	3
TAP	66	168	7
TAP	66	192	3
TAP	66	216	0
TAP	66	240	3
TAP	66	264	1
TAP	66	288	3
TAP	66	312	2
TAP	66	336	3
TAP	66	360	4
TAP	67	0	3
TAP	67	24	5
TAP	67	48	3
TAP	67	72	6
HLD	67	96	3	48
HLD	67	96	7	48
BRK	67	192	3
BRK	67	192	7
BRK	67	240	3
BRK	67	240	7
BRK	67	336	1
BRK	67	336	5
STR	68	0	1
SCL	68	0	1	96	48	6
TAP	68	192	4
TAP	68	216	3
TAP	68	240	4
TAP	68	264	2
TAP	68	288	4
TAP	68	312	1
TAP	68	336	4
TAP	68	360	0
TAP	69	0	4
TAP	69	24	7
TAP	69	48	4
TAP	69	72	6
TAP	69	96	4
TAP	69	120	5
TAP	69	144	4
TAP	69	168	3
BRK	69	192	2
BRK	69	192	5
BRK	69	240	2
BRK	69	240	5
BRK	69	336	1
BRK	69	336	6
HLD	70	0	0	12
HLD	70	24	4	12
HLD	70	48	1	12
HLD	70	72	5	12
HLD	70	96	2	12
HLD	70	120	6	12
HLD	70	144	3	12
HLD	70	168	7	12
HLD	70	192	4	12
HLD	70	216	0	12
HLD	70	240	3	12
HLD	70	264	7	12
HLD	70	288	2	12
HLD	70	312	6	12
HLD	70	336	1	12
HLD	70	360	5	12
HLD	71	0	0	12
HLD	71	24	4	12
HLD	71	48	2	12
HLD	71	72	7	12
HLD	71	96	1	12
HLD	71	120	5	12
HLD	71	144	3	12
HLD	71	168	6	12
BRK	71	192	1
BRK	71	192	5
BRK	71	240	1
BRK	71	240	5
BRK	71	336	3
BRK	71	336	7
STR	72	0	7
SI_	72	0	7	96	48	3
HLD	72	192	0	12
HLD	72	216	7	12
HLD	72	240	1	12
HLD	72	264	6	12
HLD	72	288	0	12
HLD	72	312	7	12
HLD	72	336	1	12
HLD	72	360	6	12
TAP	73	0	0
TAP	73	12	1
TAP	73	24	2
TAP	73	36	3
TAP	73	48	4
TAP	73	60	5
TAP	73	72	6
TAP	73	84	7
TAP	73	96	0
TAP	73	108	1
TAP	73	120	2
TAP	73	132	3
TAP	73	144	4
TAP	73	156	5
TAP	73	168	6
TAP	73	180	7
HLD	73	192	0	6
HLD	73	204	7	6
HLD	73	216	6	6
HLD	73	228	5	6
HLD	73	240	4	6
HLD	73	252	3	6
HLD	73	264	2	6
HLD	73	276	1	6
HLD	73	288	0	6
HLD	73	300	7	6
HLD	73	312	6	6
HLD	73	324	5	6
HLD	73	336	4	6
HLD	73	348	3	6
HLD	73	360	2	6
HLD	73	372	1	6
TAP	74	0	0
TAP	74	0	7
STR	74	96	7
SF_	74	96	7	96	48	3
BRK	74	192	7
STR	75	0	1
SV_	75	0	1	96	48	4
STR	75	96	0
SCL	75	96	0	96	48	5
TAP	75	192	3
STR	75	240	3
SV_	75	240	3	96	48	0
SV_	75	240	3	96	48	6
TAP	75	336	3
TAP	76	48	1
TAP	76	96	0
TAP	76	96	2
TAP	76	144	3
TAP	76	192	2
TAP	76	192	4
TAP	76	240	5
TAP	76	288	4
HLD	76	288	6	96
STR	77	0	0
SUR	77	0	0	96	48	4
TAP	77	96	0
TAP	77	96	6
STR	77	144	6
SCL	77	144	6	96	48	3
STR	77	240	2
SXR	77	240	2	96	336	6
TAP	77	240	6
TAP	77	336	2
TAP	78	96	3
TAP	78	192	4
TAP	78	288	5
STR	79	0	5
SXR	79	0	5	96	96	3
TAP	79	96	4
TAP	79	144	4
TAP	79	240	0
TAP	79	240	1
TAP	79	288	2
TAP	79	288	7
STR	80	0	2
SXL	80	0	2	96	96	4
TAP	80	96	3
TAP	80	144	3
TAP	80	240	6
TAP	80	240	7
TAP	80	288	0
TAP	80	288	5
STR	81	0	5
SXR	81	0	5	96	96	3
TAP	81	96	4
TAP	81	144	4
TAP	81	240	0
TAP	81	240	1
TAP	81	288	2
TAP	81	288	7
STR	82	0	0
SI_	82	0	0	96	48	5
STR	82	48	7
SI_	82	48	7	96	48	2
TAP	82	96	0
TAP	82	144	7
TAP	82	240	3
TAP	82	240	4
BRK	82	288	1
BRK	82	288	6
STR	83	0	6
SV_	83	0	6	96	48	3
STR	83	96	7
SCR	83	96	7	96	48	2
TAP	83	192	4
STR	83	240	4
SV_	83	240	4	96	48	1
SV_	83	240	4	96	48	7
TAP	83	336	4
TAP	84	48	6
TAP	84	96	5
TAP	84	96	7
TAP	84	144	4
TAP	84	192	3
TAP	84	192	5
TAP	84	240	2
HLD	84	288	1	96
TAP	84	288	3
STR	85	0	7
SUL	85	0	7	96	48	3
TAP	85	96	1
TAP	85	96	7
STR	85	144	1
SCR	85	144	1	96	48	4
TAP	85	240	1
STR	85	240	5
SXL	85	240	5	96	336	1
TAP	85	336	5
TAP	86	96	4
TAP	86	192	3
STR	86	288	2
SCR	86	288	2	96	96	5
STR	87	0	5
SCR	87	0	5	96	96	0
STR	87	96	0
SCR	87	96	0	96	96	3
TAP	87	192	3
STR	87	288	7
SCL	87	288	7	96	96	4
STR	88	0	4
SCL	88	0	4	96	96	1
STR	88	96	1
SCL	88	96	1	96	96	6
TAP	88	192	6
TAP	88	288	3
STR	89	0	2
SLL	89	0	2	96	48	5
STR	89	0	6
SI_	89	0	6	96	48	3
STR	89	192	0
SV_	89	192	0	96	48	5
STR	89	192	6
SI_	89	192	6	96	48	2
STR	90	0	0
SSL	90	0	0	96	48	4
STR	90	0	6
SI_	90	0	6	96	48	1
STR	90	192	2
SV_	90	192	2	96	48	0
STR	90	192	6
SI_	90	192	6	96	48	0
STR	91	0	1
SSL	91	0	1	96	480	5
STR	91	0	6
SSR	91	0	6	96	480	2
BRK	92	288	0
HLD	93	0	6	96
TAP	93	48	7
HLD	93	96	0	96
TAP	93	144	7
HLD	93	192	4	96
TAP	93	240	3
HLD	93	288	2	96
TAP	93	336	3
HLD	94	0	5	96
TAP	94	48	7
HLD	94	96	1	96
TAP	94	144	7
STR	94	192	6
SI_	94	192	6	96	48	2
BRK	94	240	0
BRK	94	288	0
HLD	95	0	1	96
TAP	95	48	0
HLD	95	96	7	96
TAP	95	144	0
HLD	95	192	3	96
TAP	95	240	4
HLD	95	288	5	96
TAP	95	336	4
HLD	96	0	2	96
TAP	96	48	0
HLD	96	96	6	96
TAP	96	144	0
STR	96	192	1
SI_	96	192	1	96	48	5
BRK	96	240	7
BRK	96	288	7

T_REC_TAP	575
T_REC_BRK	76
T_REC_XTP	0
T_REC_HLD	76
T_REC_XHO	0
T_REC_STR	92
T_REC_BST	0
T_REC_XST	0
T_REC_TTP	0
T_REC_THO	0
T_REC_SLD	94
T_REC_ALL	913
T_NUM_TAP	667
T_NUM_BRK	76
T_NUM_HLD	76
T_NUM_SLD	94
T_NUM_ALL	913
T_JUDGE_TAP	743
T_JUDGE_HLD	110
T_JUDGE_SLD	94
T_JUDGE_ALL	947
TTM_EACHPAIRS	178
TTM_SCR_TAP	333500
TTM_SCR_BRK	197600
TTM_SCR_HLD	76000
TTM_SCR_SLD	141000
TTM_SCR_ALL	748100
TTM_SCR_S	718300
TTM_SCR_SS	740500
TTM_RAT_ACV	10102

