VERSION	0.00.00	1.03.00
FES_MODE	0
BPM_DEF	180.000	180.000	180.000	180.000
MET_DEF	4	4
RESOLUTION	384
CLK_DEF	384
COMPATIBLE_CODE	MA2

BPM	0	0	180.000
MET	0	0	4	4

TAP	4	0	4
TAP	4	0	5
TAP	4	96	4
TAP	4	96	5
TAP	4	192	2
TAP	4	192	3
TAP	4	288	0
TAP	4	288	1
STR	4	336	0
SI_	4	336	0	96	48	5
STR	4	336	1
SI_	4	336	1	96	48	4
TAP	5	192	7
BRK	5	240	6
BRK	5	288	6
TAP	6	0	2
TAP	6	0	3
TAP	6	96	2
TAP	6	96	3
TAP	6	192	4
TAP	6	192	5
TAP	6	288	6
TAP	6	288	7
STR	6	336	6
SI_	6	336	6	96	48	3
STR	6	336	7
SI_	6	336	7	96	48	2
TAP	7	192	0
BRK	7	240	1
BRK	7	288	1
TAP	8	0	4
TAP	8	0	5
TAP	8	96	4
TAP	8	96	5
TAP	8	192	2
TAP	8	192	3
TAP	8	288	0
TAP	8	288	1
STR	8	336	0
SI_	8	336	0	96	48	4
STR	8	336	1
SI_	8	336	1	96	48	5
TAP	9	192	6
BRK	9	240	7
BRK	9	288	7
TAP	10	0	2
TAP	10	0	3
TAP	10	96	2
TAP	10	96	3
TAP	10	192	4
TAP	10	192	5
TAP	10	288	6
TAP	10	288	7
STR	10	336	6
SI_	10	336	6	96	48	2
STR	10	336	7
SI_	10	336	7	96	48	3
TAP	11	192	1
BRK	11	240	0
BRK	11	288	0
STR	12	0	2
SI_	12	0	2	96	48	5
TAP	12	0	7
TAP	12	96	7
TAP	12	192	6
TAP	12	288	6
STR	13	0	2
SI_	13	0	2	96	48	5
TAP	13	0	7
TAP	13	96	7
TAP	13	192	6
TAP	13	288	6
STR	14	0	2
SI_	14	0	2	96	48	5
TAP	14	0	7
TAP	14	96	7
TAP	14	192	6
TAP	14	288	6
TAP	15	0	4
TAP	15	0	5
TAP	15	96	3
TAP	15	96	4
TAP	15	192	2
TAP	15	192	3
TAP	15	240	1
TAP	15	288	1
TAP	16	0	0
STR	16	0	5
SCL	16	0	5	96	48	2
TAP	16	96	0
TAP	16	192	1
TAP	16	288	1
STR	17	0	1
SCL	17	0	1	96	48	6
TAP	17	0	4
TAP	17	96	4
TAP	17	192	5
TAP	17	288	5
TAP	18	0	0
STR	18	0	5
SCL	18	0	5	96	48	2
TAP	18	96	0
TAP	18	192	1
TAP	18	288	1
STR	19	0	0
SI_	19	0	0	96	48	3
STR	19	0	7
SI_	19	0	7	96	48	4
TAP	19	288	1
TAP	19	288	6
TAP	20	0	1
STR	20	0	5
SI_	20	0	5	96	48	0
TAP	20	96	1
TAP	20	192	4
TAP	20	288	4
TAP	21	0	1
STR	21	0	5
SI_	21	0	5	96	48	0
TAP	21	96	1
TAP	21	192	4
TAP	21	288	4
TAP	22	0	1
STR	22	0	5
SI_	22	0	5	96	48	0
TAP	22	96	1
TAP	22	192	4
TAP	22	288	4
TAP	23	0	1
TAP	23	0	5
TAP	23	96	2
TAP	23	96	6
TAP	23	192	3
TAP	23	192	4
TAP	23	240	3
TAP	23	240	4
TAP	23	288	3
TAP	23	288	4
STR	24	0	2
SI_	24	0	2	96	48	7
TAP	24	0	6
TAP	24	96	6
TAP	24	192	3
TAP	24	288	3
STR	25	0	2
SI_	25	0	2	96	48	7
TAP	25	0	6
TAP	25	96	6
TAP	25	192	3
TAP	25	288	3
STR	26	0	2
SI_	26	0	2	96	48	7
TAP	26	0	6
TAP	26	96	6
TAP	26	192	3
TAP	26	288	3
TAP	27	0	2
TAP	27	0	6
STR	27	96	1
SV_	27	96	1	96	96	2
STR	27	96	5
SV_	27	96	5	96	96	6
HLD	28	0	5	64
TAP	28	64	4
TAP	28	96	4
TAP	28	160	3
TAP	28	192	3
TAP	28	288	0
TAP	28	288	6
HLD	29	0	2	64
TAP	29	64	3
TAP	29	96	3
TAP	29	160	4
TAP	29	192	4
TAP	29	288	1
TAP	29	288	7
HLD	30	0	5	64
TAP	30	64	6
TAP	30	96	6
TAP	30	160	7
TAP	30	192	7
TAP	30	288	3
TAP	30	288	4
HLD	31	0	2	64
TAP	31	64	1
TAP	31	96	1
TAP	31	160	0
TAP	31	192	0
TAP	31	288	3
TAP	31	288	4
STR	32	0	6
SI_	32	0	6	96	48	3
STR	32	0	7
SI_	32	0	7	96	48	2
TAP	32	192	1
TAP	32	192	4
TAP	32	288	2
TAP	32	288	7
STR	33	0	0
SI_	33	0	0	96	48	5
STR	33	0	1
SI_	33	0	1	96	48	4
TAP	33	192	3
TAP	33	192	6
TAP	33	288	0
TAP	33	288	5
STR	34	0	6
SCL	34	0	6	96	48	3
STR	34	0	7
SUL	34	0	7	96	48	2
TAP	34	192	0
TAP	34	192	1
TAP	34	288	2
TAP	34	288	7
TAP	35	0	1
STR	35	0	3
SUR	35	0	3	96	96	1
BRK	35	288	0
BRK	35	288	7
HLD	36	0	6	64
TAP	36	64	5
HLD	36	96	5	64
TAP	36	160	4
HLD	36	192	4	64
TAP	36	256	3
TAP	36	288	3
HLD	37	0	1	64
TAP	37	64	2
HLD	37	96	2	64
TAP	37	160	3
HLD	37	192	3	64
TAP	37	256	4
TAP	37	288	4
HLD	38	0	5	64
TAP	38	64	6
HLD	38	96	6	64
TAP	38	160	7
HLD	38	192	7	64
TAP	38	256	0
TAP	38	288	0
HLD	39	0	2	64
TAP	39	64	1
HLD	39	96	1	64
TAP	39	160	0
HLD	39	192	0	64
TAP	39	256	7
TAP	39	288	7
HLD	40	0	1	96
TAP	40	0	5
TAP	40	96	0
TAP	40	192	2
HLD	40	192	6	96
TAP	40	288	7
HLD	41	0	1	96
TAP	41	0	4
TAP	41	96	0
TAP	41	192	3
HLD	41	192	6	96
TAP	41	288	7
TAP	42	0	0
TAP	42	0	1
TAP	42	96	2
TAP	42	96	3
TAP	42	192	4
TAP	42	192	5
TAP	42	288	6
TAP	42	288	7
TAP	43	0	0
TAP	43	0	7
TAP	43	48	0
TAP	43	48	7
TAP	43	96	0
TAP	43	96	7
TAP	43	144	0
TAP	43	144	7
BRK	43	192	1
BRK	43	192	6
TAP	43	288	2
TAP	43	288	3
TAP	43	336	2
TAP	43	336	3
STR	44	0	2
SI_	44	0	2	96	48	6
STR	44	0	3
SI_	44	0	3	96	48	5
TAP	44	192	0
TAP	44	192	7
TAP	44	240	0
TAP	44	240	7
STR	44	336	0
SI_	44	336	0	96	48	4
STR	44	336	1
SI_	44	336	1	96	48	3
TAP	45	144	5
TAP	45	192	4
TAP	45	240	5
TAP	45	288	3
TAP	45	288	6
TAP	46	0	2
TAP	46	0	3
TAP	46	96	1
TAP	46	96	4
TAP	46	144	1
TAP	46	144	4
STR	46	240	4
SUR	46	240	4	96	144	3
STR	46	240	5
SCR	46	240	5	96	144	2
TAP	47	192	2
TAP	47	192	3
TAP	47	288	0
HLD	47	288	5	96
TAP	48	0	4
TAP	48	96	2
TAP	48	96	7
HLD	48	144	2	96
TAP	48	144	7
TAP	48	240	3
STR	48	336	6
SCL	48	336	6	96	144	0
TAP	48	336	7
TAP	49	288	3
HLD	49	288	6	96
TAP	50	0	7
TAP	50	96	1
TAP	50	96	4
HLD	50	144	1	96
TAP	50	144	4
TAP	50	240	0
TAP	50	336	3
TAP	50	336	6
TAP	51	0	3
HLD	51	0	6	96
TAP	51	96	7
STR	51	144	7
SI_	51	144	7	96	48	3
STR	52	0	4
SI_	52	0	4	96	48	2
STR	52	0	5
SI_	52	0	5	96	48	1
TAP	52	192	0
TAP	52	192	7
TAP	52	240	0
TAP	52	240	7
STR	52	336	6
SI_	52	336	6	96	48	4
STR	52	336	7
SI_	52	336	7	96	48	3
TAP	53	144	2
TAP	53	192	3
TAP	53	240	2
TAP	53	288	1
TAP	53	288	4
TAP	54	0	4
TAP	54	0	5
TAP	54	96	3
TAP	54	96	6
TAP	54	144	3
TAP	54	144	6
STR	54	240	2
SCL	54	240	2	96	144	5
STR	54	240	3
SUL	54	240	3	96	144	4
TAP	55	192	3
TAP	55	192	4
TAP	55	288	2
TAP	55	288	5
BRK	56	0	1
BRK	56	0	6
TAP	58	0	3
TAP	58	0	4
TAP	58	48	3
TAP	58	48	4
TAP	58	96	2
TAP	58	96	3
TAP	58	144	2
TAP	58	144	3
TAP	58	192	3
TAP	58	192	4
TAP	58	240	3
TAP	58	240	4
TAP	58	288	4
TAP	58	288	5
TAP	58	336	4
TAP	58	336	5
TAP	59	0	3
TAP	59	0	4
TAP	59	48	3
TAP	59	48	4
TAP	59	96	2
TAP	59	96	3
TAP	59	144	2
TAP	59	144	3
BRK	59	192	0
BRK	59	240	0
BRK	59	336	1
BRK	59	336	6
TAP	60	0	3
TAP	60	0	4
TAP	60	48	3
TAP	60	48	4
TAP	60	96	4
TAP	60	96	5
TAP	60	144	4
TAP	60	144	5
TAP	60	192	3
TAP	60	192	4
TAP	60	240	3
TAP	60	240	4
TAP	60	288	2
TAP	60	288	3
TAP	60	336	2
TAP	60	336	3
TAP	61	0	3
TAP	61	0	4
TAP	61	48	3
TAP	61	48	4
TAP	61	96	4
TAP	61	96	5
TAP	61	144	4
TAP	61	144	5
BRK	61	192	7
BRK	61	240	7
BRK	61	336	1
BRK	61	336	6
STR	62	0	0
SI_	62	0	0	96	48	3
STR	62	0	7
SI_	62	0	7	96	48	4
TAP	62	192	3
TAP	62	192	4
TAP	62	240	3
TAP	62	240	4
TAP	62	288	2
TAP	62	288	3
TAP	62	336	2
TAP	62	336	3
TAP	63	0	3
TAP	63	0	4
TAP	63	48	3
TAP	63	48	4
TAP	63	96	4
TAP	63	96	5
TAP	63	144	4
TAP	63	144	5
BRK	63	192	0
BRK	63	240	0
BRK	63	336	2
BRK	63	336	5
STR	64	0	4
SF_	64	0	4	96	48	0
STR	64	192	3
SF_	64	192	3	96	48	7
TAP	65	0	4
TAP	65	48	5
TAP	65	96	3
TAP	65	144	2
BRK	65	192	7
BRK	65	240	7
BRK	65	336	2
BRK	65	336	5
TAP	66	0	0
TAP	66	0	7
TAP	66	48	0
TAP	66	48	7
TAP	66	96	0
TAP	66	96	1
TAP	66	144	0
TAP	66	144	1
TAP	66	192	0
TAP	66	192	7
TAP	66	240	0
TAP	66	240	7
TAP	66	288	6
TAP	66	288	7
TAP	66	336	6
TAP	66	336	7
TAP	67	0	0
TAP	67	0	7
TAP	67	48	0
TAP	67	48	7
TAP	67	96	0
TAP	67	96	1
TAP	67	144	0
TAP	67	144	1
BRK	67	192	3
BRK	67	240	3
BRK	67	336	2
BRK	67	336	5
STR	68	0	3
SI_	68	0	3	96	48	0
STR	68	0	4
SI_	68	0	4	96	48	7
TAP	68	192	0
TAP	68	192	7
TAP	68	240	0
TAP	68	240	7
TAP	68	288	5
TAP	68	288	7
TAP	68	336	5
TAP	68	336	7
TAP	69	0	0
TAP	69	0	7
TAP	69	48	0
TAP	69	48	7
TAP	69	96	0
TAP	69	96	2
TAP	69	144	0
TAP	69	144	2
BRK	69	192	4
BRK	69	240	4
BRK	69	336	1
BRK	69	336	6
TAP	70	0	0
TAP	70	0	7
TAP	70	48	6
TAP	70	48	7
TAP	70	96	0
TAP	70	96	7
TAP	70	144	0
TAP	70	144	1
TAP	70	192	0
TAP	70	192	7
TAP	70	240	6
TAP	70	240	7
TAP	70	288	0
TAP	70	288	7
TAP	70	336	0
TAP	70	336	1
TAP	71	0	0
TAP	71	0	7
TAP	71	48	6
TAP	71	48	7
TAP	71	96	0
TAP	71	96	7
TAP	71	144	0
TAP	71	144	1
BRK	71	192	0
BRK	71	192	7
BRK	71	240	0
BRK	71	240	7
BRK	71	336	2
BRK	71	336	5
STR	72	0	0
SI_	72	0	0	96	48	3
STR	72	0	7
SI_	72	0	7	96	48	4
TAP	72	192	2
TAP	72	216	3
TAP	72	240	2
TAP	72	288	5
TAP	72	312	4
TAP	72	336	5
TAP	73	0	2
TAP	73	24	3
TAP	73	48	1
TAP	73	96	5
TAP	73	120	4
TAP	73	144	6
TAP	73	192	1
TAP	73	216	0
TAP	73	240	1
TAP	73	288	6
TAP	73	312	7
TAP	73	336	6
BST	74	0	0
SSL	74	0	0	96	96	4
TAP	74	288	4
TAP	74	336	5
STR	75	0	6
SUR	75	0	6	96	48	3
STR	75	0	7
SCR	75	0	7	96	48	2
TAP	75	192	3
TAP	75	192	4
TAP	75	240	3
TAP	75	240	4
STR	75	336	4
SCL	75	336	4	96	48	1
STR	75	336	5
SUL	75	336	5	96	48	0
TAP	76	144	7
TAP	76	192	6
TAP	76	240	5
TAP	76	288	3
TAP	76	288	4
TAP	77	0	1
TAP	77	0	4
TAP	77	96	2
TAP	77	96	7
TAP	77	144	2
TAP	77	144	7
STR	77	240	3
SCR	77	240	3	96	144	7
STR	77	240	4
SCL	77	240	4	96	144	0
TAP	78	192	0
TAP	78	192	5
HLD	78	288	2	96
TAP	78	288	7
TAP	79	0	3
TAP	79	96	0
TAP	79	96	5
TAP	79	144	0
HLD	79	144	5	96
TAP	79	240	4
TAP	79	336	0
STR	79	336	1
SCR	79	336	1	96	144	7
TAP	80	288	4
TAP	80	288	6
TAP	81	0	1
TAP	81	0	3
TAP	81	96	0
TAP	81	96	7
TAP	81	144	0
TAP	81	144	7
TAP	81	240	2
TAP	81	240	5
BRK	81	336	6
BRK	81	336	7
BRK	82	0	0
BRK	82	0	5
BRK	82	96	0
BRK	82	96	1
BRK	82	144	2
BRK	82	144	7
TAP	82	288	0
TAP	82	288	7
STR	83	0	0
SCL	83	0	0	96	48	5
STR	83	0	1
SUL	83	0	1	96	48	4
TAP	83	192	3
TAP	83	192	4
TAP	83	240	3
TAP	83	240	4
HLD	83	336	1	96
TAP	83	336	6
TAP	84	48	0
TAP	84	96	7
HLD	84	144	6	96
TAP	84	240	7
TAP	84	288	0
TAP	84	336	1
BRK	85	0	2
BRK	85	0	3
BRK	85	96	1
BRK	85	96	6
BRK	85	144	1
BRK	85	144	6
BRK	85	240	4
BRK	85	240	5
BST	85	336	0
SCR	85	336	0	96	144	7
BST	85	336	7
SCL	85	336	7	96	144	0
TAP	86	288	0
HLD	86	288	5	96
TAP	87	0	4
TAP	87	96	2
TAP	87	96	7
TAP	87	144	2
HLD	87	144	7	144
TAP	87	288	6
TAP	88	0	4
HLD	88	0	5	96
TAP	88	96	0
HLD	88	192	2	96
TAP	88	192	3
TAP	88	288	7
STR	89	0	4
SI_	89	0	4	96	48	1
STR	89	0	5
SI_	89	0	5	96	48	0
STR	89	192	2
SI_	89	192	2	96	48	7
STR	89	192	3
SI_	89	192	3	96	48	6
STR	90	0	4
SF_	90	0	4	96	48	0
TAP	90	0	5
TAP	90	192	2
STR	90	192	3
SF_	90	192	3	96	48	7
STR	91	0	3
SXR	91	0	3	96	288	0
STR	91	0	4
SXL	91	0	4	96	288	7
BRK	92	288	1
BRK	92	288	6
TAP	93	0	1
TAP	93	0	3
TAP	93	96	4
TAP	93	96	6
TAP	93	192	1
TAP	93	192	3
TAP	93	288	4
TAP	93	288	5
STR	93	336	4
SCL	93	336	4	96	96	1
STR	93	336	5
SUL	93	336	5	96	96	0
TAP	94	192	6
TAP	94	192	7
BRK	94	240	0
BRK	94	240	5
BRK	94	288	0
BRK	94	288	5
TAP	95	0	4
TAP	95	0	6
TAP	95	96	1
TAP	95	96	3
TAP	95	192	4
TAP	95	192	6
TAP	95	288	2
TAP	95	288	3
STR	95	336	2
SUR	95	336	2	96	96	7
STR	95	336	3
SCR	95	336	3	96	96	6
TAP	96	192	0
TAP	96	192	1
BRK	96	240	2
BRK	96	240	7
BRK	96	288	2
BRK	96	288	7

T_REC_TAP	470
T_REC_BRK	70
T_REC_XTP	0
T_REC_HLD	33
T_REC_XHO	0
T_REC_STR	74
T_REC_BST	3
T_REC_XST	0
T_REC_TTP	0
T_REC_THO	0
T_REC_SLD	77
T_REC_ALL	727
T_NUM_TAP	544
T_NUM_BRK	73
T_NUM_HLD	33
T_NUM_SLD	77
T_NUM_ALL	727
T_JUDGE_TAP	617
T_JUDGE_HLD	67
T_JUDGE_SLD	77
T_JUDGE_ALL	761
TTM_EACHPAIRS	241
TTM_SCR_TAP	272000
TTM_SCR_BRK	189800
TTM_SCR_HLD	33000
TTM_SCR_SLD	115500
TTM_SCR_ALL	610300
TTM_SCR_S	584950
TTM_SCR_SS	603000
TTM_RAT_ACV	10121

