VERSION	0.00.00	1.03.00
FES_MODE	0
BPM_DEF	180.000	180.000	180.000	180.000
MET_DEF	4	4
RESOLUTION	384
CLK_DEF	384
COMPATIBLE_CODE	MA2

BPM	0	0	180.000
MET	0	0	4	4

STR	1	0	3
SXR	1	0	3	96	672	0
STR	1	0	4
SXL	1	0	4	96	672	7
TAP	4	0	6
TAP	4	96	6
TAP	4	96	7
TAP	4	192	1
TAP	4	288	0
TAP	4	288	1
STR	5	0	6
SV_	5	0	6	96	144	0
TAP	6	0	1
TAP	6	96	0
TAP	6	96	1
TAP	6	192	6
TAP	6	288	6
TAP	6	288	7
STR	7	0	0
SSL	7	0	0	96	192	4
TAP	8	0	5
TAP	8	96	4
TAP	8	96	5
TAP	8	192	2
TAP	8	288	2
TAP	8	288	3
STR	9	0	4
SF_	9	0	4	96	144	0
TAP	10	0	2
TAP	10	96	2
TAP	10	96	3
TAP	10	192	5
TAP	10	288	4
TAP	10	288	5
STR	11	0	2
SI_	11	0	2	96	144	6
STR	11	0	3
SI_	11	0	3	96	144	7
TAP	12	0	5
TAP	12	96	5
TAP	12	192	4
TAP	12	192	6
TAP	13	0	2
TAP	13	96	2
TAP	13	192	1
TAP	13	192	3
TAP	14	0	5
TAP	14	96	5
TAP	14	192	4
TAP	14	192	6
STR	15	0	1
SCL	15	0	1	96	96	7
STR	15	0	3
SCR	15	0	3	96	96	5
BRK	16	0	6
BRK	16	96	6
BRK	16	192	5
BRK	16	192	7
STR	17	0	1
SCR	17	0	1	96	192	5
TAP	18	0	6
TAP	18	96	6
TAP	18	192	5
TAP	18	192	7
STR	19	0	0
SI_	19	0	0	96	144	3
TAP	19	0	2
TAP	20	0	2
TAP	20	96	3
TAP	20	192	1
TAP	20	192	4
TAP	21	0	5
TAP	21	96	4
TAP	21	192	3
TAP	21	192	6
TAP	22	0	2
TAP	22	96	3
TAP	22	192	1
TAP	22	192	4
STR	23	0	3
SCL	23	0	3	96	96	1
STR	23	0	6
SCR	23	0	6	96	96	0
TAP	24	0	1
TAP	24	96	0
TAP	24	192	2
TAP	24	192	7
STR	25	0	0
SI_	25	0	0	96	144	3
STR	25	0	7
SI_	25	0	7	96	144	4
TAP	26	0	3
TAP	26	0	4
TAP	26	96	3
TAP	26	96	4
TAP	26	192	2
TAP	26	192	5
HLD	27	0	3	96
HLD	27	0	4	96
TAP	27	192	2
TAP	27	192	5
HLD	28	0	6	192
TAP	28	96	7
TAP	28	192	7
HLD	29	0	1	192
TAP	29	96	0
TAP	29	192	0
STR	30	0	2
SI_	30	0	2	96	120	7
STR	30	0	3
SI_	30	0	3	96	120	6
STR	31	0	0
SCR	31	0	0	96	144	3
STR	31	0	7
SCL	31	0	7	96	144	4
HLD	32	0	5	192
TAP	32	96	4
TAP	32	192	4
HLD	33	0	2	192
TAP	33	96	3
TAP	33	192	3
HLD	34	0	6	192
TAP	34	96	5
TAP	34	192	5
STR	35	0	1
SI_	35	0	1	96	144	6
STR	35	0	2
SI_	35	0	2	96	144	5
HLD	36	0	6	96
TAP	36	96	7
TAP	36	192	0
TAP	36	192	5
HLD	37	0	1	96
TAP	37	96	0
TAP	37	192	2
TAP	37	192	7
HLD	38	0	5	96
TAP	38	96	4
TAP	38	192	3
TAP	38	192	6
HLD	39	0	2	96
TAP	39	96	3
BRK	39	192	1
BRK	39	192	4
HLD	40	0	6	192
TAP	40	96	7
TAP	40	192	0
HLD	41	0	1	192
TAP	41	96	0
TAP	41	192	7
HLD	42	0	6	96
TAP	42	96	7
HLD	42	192	1	96
TAP	42	288	0
TAP	43	0	0
TAP	43	0	7
TAP	43	96	0
TAP	43	96	7
BRK	43	192	1
BRK	43	192	6
TAP	44	0	2
TAP	44	96	2
TAP	44	96	3
TAP	44	192	5
TAP	44	288	4
TAP	44	288	5
TAP	45	0	3
TAP	45	0	4
TAP	45	96	2
TAP	45	96	5
TAP	45	192	1
TAP	45	192	6
TAP	46	0	6
TAP	46	96	6
TAP	46	96	7
TAP	46	192	1
TAP	46	288	0
TAP	46	288	1
STR	47	0	0
SI_	47	0	0	96	120	3
STR	47	0	7
SI_	47	0	7	96	120	4
TAP	48	0	3
TAP	48	96	2
TAP	48	192	1
TAP	48	192	3
TAP	49	0	4
TAP	49	96	5
TAP	49	192	4
TAP	49	192	6
HLD	50	0	2	96
HLD	50	0	3	96
HLD	50	192	4	96
HLD	50	192	5	96
HLD	51	0	3	96
HLD	51	0	4	96
BRK	51	192	2
BRK	51	192	5
TAP	52	0	6
TAP	52	96	6
TAP	52	96	7
TAP	52	192	1
TAP	52	288	0
TAP	52	288	1
TAP	53	0	0
TAP	53	0	7
TAP	53	96	1
TAP	53	96	6
TAP	53	192	2
TAP	53	192	5
TAP	54	0	2
TAP	54	96	2
TAP	54	96	3
TAP	54	192	5
TAP	54	288	4
TAP	54	288	5
STR	55	0	3
SI_	55	0	3	96	120	0
STR	55	0	4
SI_	55	0	4	96	120	7
BRK	56	0	1
BRK	56	0	6
BRK	57	0	0
BRK	57	192	0
TAP	58	0	6
TAP	58	48	6
TAP	58	96	7
TAP	58	192	1
TAP	58	240	1
TAP	58	288	0
TAP	59	0	6
TAP	59	48	6
TAP	59	96	7
BRK	59	192	0
BRK	59	192	5
TAP	60	0	1
TAP	60	48	1
TAP	60	96	0
TAP	60	192	6
TAP	60	240	6
TAP	60	288	7
TAP	61	0	1
TAP	61	48	1
TAP	61	96	0
BRK	61	192	2
BRK	61	192	7
HLD	62	0	2	96
HLD	62	0	3	96
TAP	62	192	5
TAP	62	240	5
TAP	62	288	4
TAP	63	0	2
TAP	63	48	2
TAP	63	96	3
BRK	63	192	1
BRK	63	192	4
TAP	64	0	4
TAP	64	0	5
HLD	64	96	4	96
HLD	64	96	5	96
HLD	64	288	2	96
HLD	64	288	3	96
TAP	65	96	3
TAP	65	96	4
BRK	65	192	2
BRK	65	192	5
TAP	66	0	4
TAP	66	0	5
TAP	66	48	4
TAP	66	48	5
TAP	66	96	4
TAP	66	96	5
TAP	66	192	6
TAP	66	192	7
TAP	66	240	6
TAP	66	240	7
TAP	66	288	6
TAP	66	288	7
TAP	67	0	4
TAP	67	0	5
TAP	67	48	4
TAP	67	48	5
TAP	67	96	4
TAP	67	96	5
BRK	67	192	3
BRK	67	192	6
HLD	68	0	2	96
HLD	68	0	3	96
TAP	68	192	0
TAP	68	192	1
TAP	68	240	0
TAP	68	240	1
TAP	68	288	0
TAP	68	288	1
TAP	69	0	2
TAP	69	0	3
TAP	69	48	2
TAP	69	48	3
TAP	69	96	2
TAP	69	96	3
BRK	69	192	1
BRK	69	192	4
TAP	70	0	4
HLD	70	0	5	96
TAP	70	48	4
TAP	70	96	4
HLD	70	192	6	96
TAP	70	192	7
TAP	70	240	7
TAP	70	288	7
TAP	71	0	4
HLD	71	0	5	96
TAP	71	48	4
TAP	71	96	4
BRK	71	192	3
BRK	71	192	6
HLD	72	0	2	96
TAP	72	0	3
TAP	72	48	3
TAP	72	96	3
TAP	72	192	0
HLD	72	192	1	96
TAP	72	240	0
TAP	72	288	0
HLD	73	0	2	96
TAP	73	0	3
TAP	73	48	3
TAP	73	96	3
BRK	73	192	1
BRK	73	192	4
BRK	74	0	3
BRK	74	0	4
BRK	74	96	3
BRK	74	96	4
BRK	74	192	2
BRK	74	192	5
TAP	75	0	6
TAP	75	96	5
TAP	75	96	7
TAP	75	192	1
TAP	75	288	0
TAP	75	288	2
TAP	76	0	6
TAP	76	0	7
TAP	76	96	0
TAP	76	96	5
TAP	76	192	1
TAP	76	192	4
TAP	77	0	2
TAP	77	96	1
TAP	77	96	3
TAP	77	192	5
TAP	77	288	4
TAP	77	288	6
STR	78	0	3
SXR	78	0	3	96	144	1
STR	78	0	4
SXL	78	0	4	96	144	6
TAP	79	0	6
TAP	79	96	5
TAP	79	192	4
TAP	79	192	6
TAP	80	0	1
TAP	80	96	2
TAP	80	192	1
TAP	80	192	3
HLD	81	0	5	96
HLD	81	0	7	96
HLD	81	192	0	96
HLD	81	192	2	96
HLD	82	0	1	96
HLD	82	0	6	96
BRK	82	192	0
BRK	82	192	7
TAP	83	0	1
TAP	83	96	0
TAP	83	96	2
TAP	83	192	6
TAP	83	288	5
TAP	83	288	7
TAP	84	0	0
TAP	84	0	1
TAP	84	96	2
TAP	84	96	7
TAP	84	192	3
TAP	84	192	6
TAP	85	0	5
TAP	85	96	4
TAP	85	96	6
TAP	85	192	2
TAP	85	288	1
TAP	85	288	3
STR	86	0	3
SCL	86	0	3	96	144	0
STR	86	0	4
SCR	86	0	4	96	144	7
TAP	87	0	1
TAP	87	96	2
TAP	87	192	1
TAP	87	192	3
TAP	88	0	6
TAP	88	96	5
TAP	88	192	4
TAP	88	192	6
HLD	89	0	0	96
HLD	89	0	1	96
HLD	89	192	6	96
HLD	89	192	7	96
HLD	90	0	2	96
HLD	90	0	3	96
HLD	90	192	4	96
HLD	90	192	5	96
STR	91	0	3
SXR	91	0	3	96	480	0
STR	91	0	4
SXL	91	0	4	96	480	7
TAP	93	0	1
TAP	93	96	0
TAP	93	96	2
TAP	93	192	6
TAP	93	288	5
TAP	93	288	7
TAP	94	0	0
TAP	94	0	7
TAP	94	96	1
TAP	94	96	6
TAP	94	192	2
TAP	94	192	5
TAP	95	0	5
TAP	95	96	4
TAP	95	96	6
TAP	95	192	2
TAP	95	288	1
TAP	95	288	3
TAP	96	0	3
TAP	96	0	4
TAP	96	96	2
TAP	96	96	5
TAP	96	192	1
TAP	96	192	6
BRK	96	288	0

T_REC_TAP	291
T_REC_BRK	39
T_REC_XTP	0
T_REC_HLD	49
T_REC_XHO	0
T_REC_STR	31
T_REC_BST	0
T_REC_XST	0
T_REC_TTP	0
T_REC_THO	0
T_REC_SLD	31
T_REC_ALL	441
T_NUM_TAP	322
T_NUM_BRK	39
T_NUM_HLD	49
T_NUM_SLD	31
T_NUM_ALL	441
T_JUDGE_TAP	361
T_JUDGE_HLD	112
T_JUDGE_SLD	31
T_JUDGE_ALL	504
TTM_EACHPAIRS	138
TTM_SCR_TAP	161000
TTM_SCR_BRK	101400
TTM_SCR_HLD	49000
TTM_SCR_SLD	46500
TTM_SCR_ALL	357900
TTM_SCR_S	343400
TTM_SCR_SS	354000
TTM_RAT_ACV	10110

