VERSION	0.00.00	1.03.00
FES_MODE	0
BPM_DEF	180.000	180.000	180.000	180.000
MET_DEF	4	4
RESOLUTION	384
CLK_DEF	384
COMPATIBLE_CODE	MA2

BPM	0	0	180.000
MET	0	0	4	4

TAP	4	0	1
TAP	4	192	1
TAP	5	0	0
TAP	5	192	0
TAP	6	0	7
TAP	6	192	7
TAP	7	0	6
TAP	7	192	6
TAP	8	0	6
TAP	8	192	6
TAP	9	0	7
TAP	9	192	7
TAP	10	0	0
TAP	10	192	0
TAP	11	0	1
TAP	11	192	1
TAP	12	0	0
TAP	12	192	0
TAP	13	0	1
TAP	13	192	1
TAP	14	0	2
TAP	14	96	2
TAP	14	192	2
HLD	15	0	3	192
TAP	16	0	4
TAP	16	192	4
TAP	17	0	5
TAP	17	192	5
TAP	18	0	6
TAP	18	96	6
TAP	18	192	6
HLD	19	0	7	192
TAP	20	0	0
TAP	20	192	0
TAP	21	0	7
TAP	21	192	7
TAP	22	0	6
TAP	22	96	6
TAP	22	192	6
TAP	23	0	5
TAP	23	96	5
TAP	23	192	4
TAP	23	192	5
TAP	24	0	4
TAP	24	192	4
TAP	25	0	3
TAP	25	192	3
TAP	26	0	2
TAP	26	96	2
TAP	26	192	2
TAP	27	0	1
TAP	27	96	1
TAP	27	192	0
TAP	27	192	1
STR	28	0	7
SI_	28	0	7	96	288	3
STR	30	0	0
SI_	30	0	0	96	288	4
TAP	32	0	3
TAP	32	96	3
TAP	32	192	3
TAP	33	0	2
TAP	33	96	2
TAP	33	192	2
TAP	34	0	1
TAP	34	96	1
TAP	34	192	1
TAP	35	0	0
TAP	35	96	0
TAP	35	192	0
STR	36	0	7
SI_	36	0	7	96	288	2
STR	38	0	0
SI_	38	0	0	96	288	5
TAP	40	0	4
TAP	40	96	4
TAP	40	192	4
TAP	41	0	5
TAP	41	96	5
TAP	41	192	5
TAP	42	0	6
TAP	42	96	6
TAP	42	192	6
TAP	43	0	0
TAP	43	0	7
TAP	43	96	0
TAP	43	96	7
BRK	43	192	0
BRK	43	192	7
TAP	44	0	0
TAP	44	96	0
TAP	44	192	0
TAP	45	0	1
TAP	45	96	1
TAP	45	192	1
TAP	46	0	2
TAP	46	96	2
TAP	46	192	2
TAP	47	0	3
TAP	47	0	4
TAP	47	96	3
TAP	47	96	4
TAP	47	192	3
TAP	47	192	4
TAP	48	0	4
TAP	48	96	4
TAP	48	192	4
TAP	49	0	5
TAP	49	96	5
TAP	49	192	5
TAP	50	0	6
TAP	50	96	6
TAP	50	192	6
TAP	51	0	0
TAP	51	0	7
TAP	51	96	0
TAP	51	96	7
TAP	51	192	0
TAP	51	192	7
TAP	52	0	1
TAP	52	96	1
TAP	52	192	1
TAP	53	0	0
TAP	53	96	0
TAP	53	192	0
TAP	54	0	7
TAP	54	96	7
TAP	54	192	7
HLD	55	0	6	384
HLD	55	0	7	384
TAP	58	0	3
TAP	58	96	3
TAP	58	192	3
TAP	58	288	3
TAP	59	0	2
TAP	59	96	2
TAP	59	192	2
TAP	60	0	1
TAP	60	96	1
TAP	60	192	1
TAP	60	288	1
TAP	61	0	0
TAP	61	96	0
TAP	61	192	0
TAP	62	0	7
TAP	62	96	7
TAP	62	192	7
TAP	62	288	7
TAP	63	0	6
TAP	63	96	6
TAP	63	192	6
TAP	64	0	5
TAP	64	96	5
TAP	64	192	5
TAP	64	288	5
TAP	65	0	4
TAP	65	96	4
TAP	65	192	4
TAP	66	0	3
TAP	66	96	3
TAP	66	192	4
TAP	66	288	4
TAP	67	0	5
TAP	67	96	5
TAP	67	192	4
TAP	67	192	5
TAP	68	0	6
TAP	68	96	6
TAP	68	192	7
TAP	68	288	7
TAP	69	0	0
TAP	69	96	0
TAP	69	192	0
TAP	69	192	7
TAP	70	0	1
TAP	70	96	1
TAP	70	192	2
TAP	70	288	2
TAP	71	0	3
TAP	71	96	3
TAP	71	192	3
TAP	71	192	4
TAP	72	0	3
TAP	72	0	4
TAP	72	192	3
TAP	72	192	4
TAP	72	288	3
TAP	72	288	4
TAP	73	0	3
TAP	73	0	4
TAP	73	96	3
TAP	73	96	4
TAP	73	192	3
TAP	73	192	4
TAP	73	288	3
TAP	73	288	4
BRK	74	0	3
BRK	74	0	4
TAP	75	0	2
TAP	75	96	2
TAP	75	192	2
TAP	76	0	3
TAP	76	96	3
TAP	76	192	3
TAP	76	192	4
TAP	77	0	4
TAP	77	96	4
TAP	77	192	4
TAP	78	0	5
TAP	78	96	5
TAP	78	192	4
TAP	78	192	5
TAP	79	0	6
TAP	79	96	6
TAP	79	192	6
TAP	80	0	7
TAP	80	96	7
TAP	80	192	0
TAP	80	192	7
TAP	81	0	0
TAP	81	96	0
TAP	81	192	0
TAP	82	0	7
TAP	82	96	7
TAP	82	192	0
TAP	82	192	7
TAP	83	0	6
TAP	83	96	6
TAP	83	192	6
TAP	84	0	5
TAP	84	96	5
TAP	84	192	4
TAP	84	192	5
TAP	85	0	4
TAP	85	96	4
TAP	85	192	4
TAP	86	0	3
TAP	86	96	3
TAP	86	192	3
TAP	86	192	4
TAP	87	0	2
TAP	87	96	2
TAP	87	192	2
TAP	88	0	1
TAP	88	96	1
TAP	88	192	0
TAP	88	192	1
TAP	89	0	0
TAP	89	96	0
TAP	89	192	0
TAP	90	0	7
TAP	90	96	7
TAP	90	192	0
TAP	90	192	7
STR	91	0	0
SI_	91	0	0	96	288	3
STR	91	0	7
SI_	91	0	7	96	288	4
TAP	93	0	0
TAP	93	96	0
TAP	93	192	0
TAP	94	0	7
TAP	94	96	7
TAP	94	192	7
TAP	95	0	0
TAP	95	96	0
TAP	95	192	0
TAP	96	0	7
TAP	96	96	7
TAP	96	192	7
BRK	96	288	7

T_REC_TAP	250
T_REC_BRK	5
T_REC_XTP	0
T_REC_HLD	4
T_REC_XHO	0
T_REC_STR	6
T_REC_BST	0
T_REC_XST	0
T_REC_TTP	0
T_REC_THO	0
T_REC_SLD	6
T_REC_ALL	271
T_NUM_TAP	256
T_NUM_BRK	5
T_NUM_HLD	4
T_NUM_SLD	6
T_NUM_ALL	271
T_JUDGE_TAP	261
T_JUDGE_HLD	24
T_JUDGE_SLD	6
T_JUDGE_ALL	291
TTM_EACHPAIRS	32
TTM_SCR_TAP	128000
TTM_SCR_BRK	13000
TTM_SCR_HLD	4000
TTM_SCR_SLD	9000
TTM_SCR_ALL	154000
TTM_SCR_S	148900
TTM_SCR_SS	153500
TTM_RAT_ACV	10032

