VERSION	0.00.00	1.03.00
FES_MODE	0
BPM_DEF	216.000	216.000	216.000	216.000
MET_DEF	4	4
RESOLUTION	384
CLK_DEF	384
COMPATIBLE_CODE	MA2

BPM	0	0	216.000
MET	0	0	4	4

TAP	1	0	3
TAP	1	96	4
TAP	1	192	3
TAP	1	240	3
TAP	1	288	4
TAP	2	0	3
TAP	2	96	4
TAP	2	144	4
TAP	2	192	3
TAP	2	240	3
TAP	2	288	4
TAP	3	0	2
TAP	3	96	4
TAP	3	192	2
TAP	3	240	2
TAP	3	288	4
TAP	4	0	2
TAP	4	96	4
TAP	4	144	4
TAP	4	192	2
TAP	4	240	2
TAP	4	288	4
TAP	5	0	3
TAP	5	96	5
TAP	5	192	3
TAP	5	240	3
TAP	5	288	5
TAP	6	0	3
TAP	6	96	5
TAP	6	144	5
TAP	6	192	3
TAP	6	240	3
TAP	6	288	5
TAP	7	0	2
TAP	7	96	5
TAP	7	192	2
TAP	7	240	2
TAP	7	288	5
TAP	8	0	2
TAP	8	96	5
TAP	8	144	5
TAP	8	192	2
TAP	8	240	2
TAP	8	288	5
TAP	9	0	3
TAP	9	0	4
TAP	9	96	2
TAP	9	144	3
TAP	9	240	5
TAP	9	288	4
TAP	10	0	2
TAP	10	48	3
TAP	10	144	5
TAP	10	192	4
TAP	10	288	2
TAP	10	288	3
TAP	11	0	4
TAP	11	0	5
TAP	11	96	1
TAP	11	144	3
TAP	11	240	6
TAP	11	288	4
TAP	12	0	1
TAP	12	48	3
TAP	12	144	6
TAP	12	192	4
TAP	12	288	1
TAP	12	288	3
TAP	13	0	4
TAP	13	0	6
TAP	13	96	1
TAP	13	144	2
TAP	13	240	6
TAP	13	288	5
TAP	14	0	1
TAP	14	48	2
TAP	14	144	6
TAP	14	192	5
TAP	14	288	3
TAP	14	288	4
BRK	15	0	0
TAP	15	0	7
TAP	15	96	7
BRK	15	192	1
TAP	15	192	6
TAP	15	288	6
BRK	16	0	2
TAP	16	0	5
TAP	16	96	5
BRK	16	192	3
TAP	16	192	4
TAP	16	288	4
HLD	17	0	2	96
TAP	17	96	3
HLD	17	144	2	96
TAP	17	240	3
TAP	17	288	2
TAP	17	336	1
HLD	18	0	5	96
TAP	18	96	4
HLD	18	144	5	96
TAP	18	240	4
TAP	18	288	5
TAP	18	336	3
TAP	18	336	6
TAP	19	48	1
TAP	19	96	0
TAP	19	144	1
TAP	19	192	2
TAP	19	192	7
TAP	19	288	6
TAP	19	336	7
TAP	20	0	0
TAP	20	0	5
STR	20	96	1
SCR	20	96	1	96	48	3
STR	20	96	6
SCL	20	96	6	96	48	4
TAP	20	144	1
TAP	20	144	6
TAP	20	288	0
TAP	20	288	7
STR	21	48	1
SI_	21	48	1	96	48	3
STR	21	144	7
SI_	21	144	7	96	48	5
STR	21	240	0
SI_	21	240	0	96	48	4
TAP	21	336	7
TAP	22	0	7
TAP	22	96	2
TAP	22	96	6
STR	22	144	2
SCR	22	144	2	96	48	5
STR	22	144	6
SUL	22	144	6	96	48	1
TAP	23	0	6
TAP	23	48	7
TAP	23	96	6
TAP	23	144	0
TAP	23	144	5
TAP	23	240	1
TAP	23	288	0
TAP	23	336	1
TAP	24	0	2
TAP	24	0	7
STR	24	96	3
SXR	24	96	3	96	144	3
STR	24	96	4
SXL	24	96	4	96	144	4
TAP	24	144	3
TAP	24	144	4
STR	25	0	1
SCR	25	0	1	96	96	4
STR	25	96	4
SCR	25	96	4	96	96	7
STR	25	192	7
SCR	25	192	7	96	96	2
STR	25	288	2
SCR	25	288	2	96	96	5
STR	26	0	5
SCR	26	0	5	96	96	0
STR	26	96	0
SCR	26	96	0	96	96	3
STR	26	192	3
SF_	26	192	3	96	48	7
TAP	27	48	5
TAP	27	96	6
TAP	27	144	7
TAP	27	192	0
TAP	27	240	1
TAP	27	288	2
TAP	27	336	3
TAP	27	336	4
TAP	28	48	0
TAP	28	48	7
TAP	28	96	1
TAP	28	96	6
TAP	28	144	2
TAP	28	144	5
STR	28	192	3
SI_	28	192	3	96	48	0
STR	28	192	4
SI_	28	192	4	96	48	7
STR	29	0	1
SI_	29	0	1	96	48	5
STR	29	144	3
SCR	29	144	3	96	48	6
STR	29	288	0
SCR	29	288	0	96	48	3
STR	30	48	5
SI_	30	48	5	96	48	0
STR	30	144	2
SI_	30	144	2	96	48	7
TAP	30	240	5
TAP	30	288	5
STR	31	0	6
SI_	31	0	6	96	48	2
STR	31	144	4
SCL	31	144	4	96	48	1
TAP	31	240	0
TAP	31	288	7
TAP	31	336	6
TAP	32	0	5
TAP	32	48	3
TAP	32	48	4
TAP	32	144	0
TAP	32	144	7
STR	32	192	0
SUL	32	192	0	96	96	3
STR	32	192	7
SUR	32	192	7	96	96	4
TAP	33	48	2
TAP	33	96	1
TAP	33	144	0
TAP	33	192	7
TAP	33	240	6
TAP	33	288	5
TAP	33	336	3
TAP	33	336	4
TAP	34	48	0
TAP	34	96	1
TAP	34	144	2
TAP	34	192	3
TAP	34	240	4
TAP	34	288	5
TAP	34	336	6
TAP	35	0	7
TAP	35	48	6
TAP	35	96	5
TAP	35	144	4
TAP	35	192	3
TAP	35	240	2
TAP	35	288	1
TAP	35	336	0
TAP	36	0	1
TAP	36	48	2
TAP	36	96	3
TAP	36	144	4
TAP	36	192	5
TAP	36	240	6
TAP	36	288	0
TAP	36	288	7
TAP	37	48	5
TAP	37	96	4
TAP	37	144	3
HLD	37	192	0	48
HLD	37	192	2	48
HLD	37	288	0	48
HLD	37	288	2	48
HLD	38	0	5	48
HLD	38	0	7	48
HLD	38	96	5	48
HLD	38	96	7	48
TAP	38	192	0
TAP	38	192	7
TAP	38	240	1
TAP	38	240	6
TAP	38	288	2
TAP	38	288	5
TAP	38	336	3
TAP	38	336	4
STR	39	48	1
SXL	39	48	1	96	96	2
STR	39	48	5
SXL	39	48	5	96	96	6
TAP	39	96	1
TAP	39	96	5
TAP	39	288	3
TAP	39	288	4
STR	40	0	2
SXR	40	0	2	96	96	1
STR	40	0	6
SXR	40	0	6	96	96	5
TAP	40	48	2
TAP	40	48	6
TAP	40	240	0
TAP	40	240	7
TAP	40	288	0
TAP	40	288	7
TAP	41	48	4
TAP	41	96	5
TAP	41	144	6
TAP	41	192	7
TAP	41	240	0
TAP	41	288	1
TAP	41	336	2
TAP	42	0	3
TAP	42	0	4
TAP	42	48	2
TAP	42	96	1
TAP	42	144	0
TAP	42	192	7
TAP	42	240	6
TAP	42	288	2
TAP	42	288	5
TAP	43	0	0
TAP	43	48	1
TAP	43	96	2
TAP	43	96	5
TAP	43	192	7
TAP	43	240	6
TAP	43	288	5
TAP	43	336	4
TAP	44	0	3
TAP	44	48	4
TAP	44	96	3
TAP	44	144	4
TAP	44	192	5
TAP	44	240	6
TAP	44	288	0
TAP	44	288	7
TAP	45	48	2
TAP	45	96	1
TAP	45	144	0
TAP	45	192	3
TAP	45	240	2
TAP	45	288	1
TAP	45	336	4
TAP	46	0	3
TAP	46	48	2
TAP	46	96	5
TAP	46	144	4
TAP	46	192	3
TAP	46	240	6
TAP	46	288	5
TAP	46	336	4
TAP	47	0	7
TAP	47	48	6
TAP	47	96	5
TAP	47	144	0
TAP	47	192	1
TAP	47	240	2
TAP	47	288	3
TAP	47	288	4
TAP	47	336	2
TAP	48	0	1
TAP	48	48	0
TAP	48	96	7
TAP	48	144	6
BRK	48	192	2
BRK	48	192	5
STR	49	0	2
SI_	49	0	2	96	48	0
TAP	49	96	2
TAP	49	144	4
STR	49	192	7
SI_	49	192	7	96	48	3
TAP	49	288	7
TAP	49	336	5
STR	50	0	2
SI_	50	0	2	96	48	0
TAP	50	96	2
TAP	50	144	4
STR	50	192	7
SI_	50	192	7	96	48	3
TAP	50	288	7
TAP	50	336	5
STR	51	0	2
SI_	51	0	2	96	48	0
TAP	51	96	2
TAP	51	144	4
STR	51	192	7
SI_	51	192	7	96	48	3
TAP	51	288	7
TAP	51	336	5
STR	52	0	2
SI_	52	0	2	96	48	0
STR	52	96	4
SI_	52	96	4	96	48	6
STR	52	192	3
SI_	52	192	3	96	48	7
BRK	52	288	7
STR	53	0	5
SI_	53	0	5	96	48	7
TAP	53	96	5
TAP	53	144	3
STR	53	192	0
SI_	53	192	0	96	48	4
TAP	53	288	0
TAP	53	336	2
STR	54	0	5
SI_	54	0	5	96	48	7
TAP	54	96	5
TAP	54	144	3
STR	54	192	0
SI_	54	192	0	96	48	4
TAP	54	288	0
TAP	54	336	2
STR	55	0	5
SI_	55	0	5	96	48	7
TAP	55	96	5
TAP	55	144	3
STR	55	192	0
SI_	55	192	0	96	48	4
TAP	55	288	0
TAP	55	336	2
STR	56	0	5
SI_	56	0	5	96	48	7
TAP	56	96	5
TAP	56	144	0
STR	56	192	0
SF_	56	192	0	96	48	4
BRK	56	288	0
STR	57	0	2
SI_	57	0	2	96	48	0
TAP	57	96	2
TAP	57	144	4
STR	57	192	7
SI_	57	192	7	96	48	3
TAP	57	288	7
TAP	57	336	5
STR	58	0	2
SI_	58	0	2	96	48	0
TAP	58	96	2
TAP	58	144	4
STR	58	192	7
SI_	58	192	7	96	48	3
TAP	58	288	7
TAP	58	336	5
STR	59	0	2
SI_	59	0	2	96	48	0
STR	59	96	4
SI_	59	96	4	96	48	6
STR	59	192	3
SI_	59	192	3	96	48	1
STR	59	288	5
SI_	59	288	5	96	48	7
STR	60	0	2
SI_	60	0	2	96	48	0
STR	60	96	4
SI_	60	96	4	96	48	7
STR	60	192	3
SI_	60	192	3	96	48	0
STR	60	288	4
SCR	60	288	4	96	192	3
TAP	61	0	3
STR	61	288	0
SI_	61	288	0	96	48	2
STR	61	288	3
SI_	61	288	3	96	48	6
TAP	62	0	0
TAP	62	0	3
STR	62	96	4
SI_	62	96	4	96	48	1
STR	62	96	7
SI_	62	96	7	96	48	5
TAP	62	192	4
TAP	62	192	7
BRK	62	288	0
TAP	63	0	0
TAP	63	48	1
TAP	63	96	2
TAP	63	144	3
TAP	63	192	4
TAP	63	240	5
TAP	63	288	6
TAP	63	336	7
TAP	64	0	3
TAP	64	48	2
TAP	64	96	1
TAP	64	144	0
TAP	64	192	7
TAP	64	240	6
TAP	64	288	5
TAP	64	336	4
STR	65	0	3
SCL	65	0	3	96	96	7
STR	65	96	7
SCL	65	96	7	96	96	3
STR	65	192	3
SCL	65	192	3	96	96	7
STR	65	288	7
SCL	65	288	7	96	96	3
STR	66	0	3
SCL	66	0	3	96	96	7
STR	66	96	7
SCL	66	96	7	96	96	3
STR	66	192	3
SI_	66	192	3	96	48	7
STR	67	0	0
SI_	67	0	0	96	48	2
STR	67	0	4
SI_	67	0	4	96	48	6
TAP	67	96	0
TAP	67	96	4
STR	67	192	3
SI_	67	192	3	96	48	1
STR	67	192	7
SI_	67	192	7	96	48	5
TAP	67	288	3
TAP	67	288	7
STR	68	0	0
SCR	68	0	0	96	48	3
STR	68	0	4
SCR	68	0	4	96	48	7
STR	68	96	0
SF_	68	96	0	96	72	4
STR	69	0	6
SCR	69	0	6	96	96	2
STR	69	96	2
SCR	69	96	2	96	96	6
STR	69	192	6
SCR	69	192	6	96	96	2
STR	69	288	2
SCR	69	288	2	96	96	6
STR	70	0	6
SCR	70	0	6	96	96	2
STR	70	96	2
SCR	70	96	2	96	96	6
STR	70	192	6
SI_	70	192	6	96	48	2
STR	71	0	3
SCR	71	0	3	96	48	6
STR	71	0	4
SCL	71	0	4	96	48	1
TAP	71	96	3
TAP	71	96	4
TAP	71	192	0
TAP	71	192	7
STR	71	240	0
SCR	71	240	0	96	48	3
STR	71	240	7
SCL	71	240	7	96	48	4
TAP	71	336	0
TAP	71	336	7
TAP	72	48	1
TAP	72	96	0
TAP	72	144	7
TAP	72	192	6
TAP	72	240	5
TAP	72	288	4
TAP	72	336	3
BRK	73	0	2
BRK	73	192	1
BRK	74	0	0
TAP	74	240	1
TAP	74	240	6
TAP	74	288	2
TAP	74	288	5
TAP	74	336	3
TAP	74	336	4
STR	75	0	0
SI_	75	0	0	96	48	4
STR	75	0	7
SI_	75	0	7	96	48	3
BRK	75	96	0
BRK	75	96	7
STR	75	192	0
SCR	75	192	0	96	48	3
TAP	75	288	6
TAP	75	336	7
STR	76	0	0
SCL	76	0	0	96	48	5
TAP	76	96	2
TAP	76	144	1
STR	76	192	0
SCR	76	192	0	96	48	3
TAP	76	288	6
TAP	76	336	7
STR	77	0	0
SCL	77	0	0	96	48	5
TAP	77	96	2
TAP	77	144	1
STR	77	192	0
SCR	77	192	0	96	48	3
TAP	77	288	6
TAP	77	336	7
STR	78	0	0
SI_	78	0	0	96	48	5
STR	78	96	4
SI_	78	96	4	96	48	1
STR	78	192	6
SI_	78	192	6	96	48	3
BRK	78	288	0
STR	79	0	7
SCR	79	0	7	96	48	2
TAP	79	96	4
TAP	79	144	5
STR	79	192	7
SCL	79	192	7	96	48	4
TAP	79	288	2
TAP	79	336	1
STR	80	0	7
SCR	80	0	7	96	48	2
TAP	80	96	4
TAP	80	144	5
STR	80	192	7
SCL	80	192	7	96	48	4
TAP	80	288	2
TAP	80	336	1
STR	81	0	7
SCR	81	0	7	96	48	2
TAP	81	96	4
TAP	81	144	5
STR	81	192	7
SCL	81	192	7	96	48	4
TAP	81	288	2
TAP	81	336	1
STR	82	0	7
SI_	82	0	7	96	48	2
STR	82	96	3
SI_	82	96	3	96	48	6
STR	82	192	1
SI_	82	192	1	96	48	4
BRK	82	288	7
STR	83	0	0
SCL	83	0	0	96	72	4
TAP	83	96	4
TAP	83	144	2
STR	83	192	0
SCR	83	192	0	96	72	4
TAP	83	288	4
TAP	83	336	6
STR	84	0	0
SCL	84	0	0	96	72	4
TAP	84	96	4
TAP	84	144	2
STR	84	192	0
SCR	84	192	0	96	72	4
TAP	84	288	4
TAP	84	336	6
BST	85	0	0
SI_	85	0	0	96	48	5
BST	85	96	1
SI_	85	96	1	96	48	4
BST	85	192	6
SI_	85	192	6	96	48	3
BST	85	288	7
SI_	85	288	7	96	48	2
BST	86	0	4
SI_	86	0	4	96	48	7
BST	86	96	3
SI_	86	96	3	96	48	0
BST	86	192	4
SI_	86	192	4	96	48	0
BST	86	288	3
SCL	86	288	3	96	192	4
BRK	87	0	4
STR	87	288	4
SI_	87	288	4	96	48	1
STR	87	288	7
SI_	87	288	7	96	48	5
TAP	88	0	4
TAP	88	0	7
STR	88	96	0
SI_	88	96	0	96	48	2
STR	88	96	3
SI_	88	96	3	96	48	6
TAP	88	192	0
TAP	88	192	3
STR	88	288	3
SXR	88	288	3	96	192	0
STR	88	288	7
SXR	88	288	7	96	192	4
TAP	89	0	3
TAP	89	0	7
TAP	89	288	2
TAP	89	288	6
BRK	90	0	0
BRK	90	0	4
TAP	90	48	0
TAP	90	48	4
TAP	90	96	0
TAP	90	96	4
TAP	90	144	0
TAP	90	144	4
BRK	90	192	0
BRK	90	192	4
TAP	90	240	0
TAP	90	240	4
TAP	90	288	0
TAP	90	288	4
TAP	90	336	0
TAP	90	336	4
HLD	91	0	0	672
BST	91	0	4
SCR	91	0	4	96	480	3
STR	92	288	6
SUL	92	288	6	96	240	1
HLD	92	336	6	336
STR	93	288	2
SCR	93	288	2	96	192	5
HLD	93	336	2	336
BRK	94	288	7
STR	95	0	6
SI_	95	0	6	96	48	2
STR	95	144	4
SCL	95	144	4	96	48	1
STR	95	288	7
SCL	95	288	7	96	48	4
STR	96	48	2
SI_	96	48	2	96	48	6
STR	96	192	4
SI_	96	192	4	96	48	0
BRK	96	288	3
STR	97	0	1
SI_	97	0	1	96	48	5
STR	97	144	3
SCR	97	144	3	96	48	6
STR	97	288	0
SCR	97	288	0	96	48	3
STR	98	48	5
SI_	98	48	5	96	48	1
STR	98	192	3
SF_	98	192	3	96	48	7
BRK	99	0	1
BRK	99	0	5

T_REC_TAP	390
T_REC_BRK	25
T_REC_XTP	0
T_REC_HLD	15
T_REC_XHO	0
T_REC_STR	130
T_REC_BST	9
T_REC_XST	0
T_REC_TTP	0
T_REC_THO	0
T_REC_SLD	139
T_REC_ALL	708
T_NUM_TAP	520
T_NUM_BRK	34
T_NUM_HLD	15
T_NUM_SLD	139
T_NUM_ALL	708
T_JUDGE_TAP	554
T_JUDGE_HLD	44
T_JUDGE_SLD	139
T_JUDGE_ALL	737
TTM_EACHPAIRS	89
TTM_SCR_TAP	260000
TTM_SCR_BRK	88400
TTM_SCR_HLD	15000
TTM_SCR_SLD	208500
TTM_SCR_ALL	571900
TTM_SCR_S	551450
TTM_SCR_SS	568500
TTM_RAT_ACV	10059

