VERSION	0.00.00	1.03.00
FES_MODE	0
BPM_DEF	216.000	216.000	216.000	216.000
MET_DEF	4	4
RESOLUTION	384
CLK_DEF	384
COMPATIBLE_CODE	MA2

BPM	0	0	216.000
MET	0	0	4	4

HLD	1	0	2	768
TAP	1	96	3
TAP	1	288	3
TAP	2	96	3
TAP	2	144	3
TAP	2	288	3
HLD	3	0	5	768
TAP	3	96	4
TAP	3	288	4
TAP	4	96	4
TAP	4	144	4
TAP	4	288	4
HLD	5	0	2	768
TAP	5	96	3
TAP	5	288	4
TAP	6	96	3
TAP	6	144	3
TAP	6	288	4
HLD	7	0	5	768
TAP	7	96	4
TAP	7	288	3
TAP	8	96	4
TAP	8	144	4
TAP	8	288	3
HLD	9	0	2	384
TAP	9	96	3
TAP	9	288	3
HLD	10	0	5	384
TAP	10	96	4
TAP	10	144	4
TAP	10	288	4
HLD	11	0	3	384
TAP	11	96	4
TAP	11	288	4
HLD	12	0	4	384
TAP	12	96	3
TAP	12	144	3
TAP	12	288	3
HLD	13	0	2	384
TAP	13	96	3
TAP	13	288	3
HLD	14	0	5	384
TAP	14	96	4
TAP	14	144	4
TAP	14	288	4
TAP	15	0	0
TAP	15	192	1
TAP	16	0	2
TAP	16	192	3
TAP	16	288	3
TAP	16	288	4
TAP	17	0	4
HLD	17	0	5	1440
TAP	17	96	4
TAP	17	192	7
TAP	17	288	4
TAP	18	0	7
TAP	18	96	4
TAP	18	192	3
TAP	18	288	6
TAP	19	0	4
TAP	19	96	3
TAP	19	192	4
TAP	19	288	3
TAP	20	0	4
TAP	20	96	4
TAP	20	192	6
BRK	20	288	0
HLD	21	0	6	1440
TAP	21	0	7
TAP	21	96	4
TAP	21	192	7
TAP	21	288	7
TAP	22	0	0
TAP	22	96	4
TAP	22	192	4
BRK	22	288	7
TAP	23	0	0
TAP	23	96	7
TAP	23	192	0
TAP	23	288	7
STR	24	0	0
SI_	24	0	0	96	96	4
TAP	24	288	7
TAP	25	0	4
HLD	25	0	5	1440
TAP	25	96	0
TAP	25	192	7
TAP	25	288	0
STR	26	0	4
SUL	26	0	4	96	96	0
BRK	26	288	7
TAP	27	0	4
TAP	27	96	4
TAP	27	192	3
TAP	27	288	3
TAP	28	0	6
TAP	28	96	0
TAP	28	192	6
TAP	28	288	0
HLD	29	0	6	1440
HLD	29	0	7	96
HLD	29	144	0	96
BRK	29	288	7
TAP	30	0	4
TAP	30	96	7
TAP	30	192	4
STR	30	288	7
SI_	30	288	7	96	96	4
TAP	31	192	4
STR	31	288	4
SUL	31	288	4	96	192	1
BRK	32	288	0
HLD	33	0	2	1440
TAP	33	0	3
TAP	33	96	3
TAP	33	192	0
TAP	33	288	3
TAP	34	0	7
TAP	34	96	7
TAP	34	192	4
TAP	34	288	4
TAP	35	0	1
TAP	35	96	3
TAP	35	192	1
TAP	35	288	3
TAP	36	0	0
TAP	36	96	0
TAP	36	192	3
TAP	36	288	7
TAP	37	0	0
HLD	37	0	1	1440
TAP	37	96	0
TAP	37	192	3
TAP	37	288	3
TAP	38	0	4
TAP	38	96	2
TAP	38	192	4
BST	38	288	0
SLR	38	288	0	96	144	6
TAP	39	288	4
TAP	40	0	2
TAP	40	96	4
TAP	40	192	7
TAP	40	288	4
HLD	41	0	2	1440
TAP	41	0	3
TAP	41	96	3
TAP	41	192	4
TAP	41	288	4
TAP	42	0	1
TAP	42	96	4
TAP	42	192	1
TAP	42	288	7
TAP	43	0	4
TAP	43	96	0
TAP	43	192	3
TAP	43	288	7
TAP	44	0	4
TAP	44	96	0
TAP	44	192	3
TAP	44	288	7
HLD	45	0	1	1248
TAP	45	0	3
TAP	45	96	3
TAP	45	192	4
TAP	45	288	4
TAP	46	0	0
TAP	46	96	0
TAP	46	192	7
TAP	46	288	7
TAP	47	0	2
TAP	47	96	4
TAP	47	192	2
TAP	47	288	4
TAP	48	0	7
BST	48	96	2
SI_	48	96	2	96	96	7
TAP	49	0	5
TAP	49	96	4
TAP	49	96	6
TAP	49	192	2
TAP	49	288	1
TAP	49	288	3
TAP	50	0	6
TAP	50	96	5
TAP	50	96	7
TAP	50	192	1
TAP	50	288	0
TAP	50	288	2
TAP	51	0	4
TAP	51	0	5
TAP	51	96	2
TAP	51	96	4
TAP	51	192	4
TAP	51	192	5
STR	51	288	1
SXR	51	288	1	96	192	6
TAP	51	288	4
TAP	52	288	0
TAP	52	288	7
TAP	53	0	2
TAP	53	96	1
TAP	53	96	3
TAP	53	192	5
TAP	53	288	4
TAP	53	288	6
TAP	54	0	1
TAP	54	96	0
TAP	54	96	2
TAP	54	192	6
TAP	54	288	5
TAP	54	288	7
TAP	55	0	2
TAP	55	0	3
TAP	55	96	3
TAP	55	96	5
TAP	55	192	2
TAP	55	192	3
STR	55	288	3
SCL	55	288	3	96	192	4
TAP	55	288	6
TAP	56	288	1
TAP	56	288	6
TAP	57	0	7
TAP	57	96	4
TAP	57	96	6
TAP	57	192	0
TAP	57	288	1
TAP	57	288	3
TAP	58	0	7
TAP	58	96	4
TAP	58	96	6
TAP	58	192	0
TAP	58	288	1
TAP	58	288	3
STR	59	0	5
SI_	59	0	5	96	96	2
STR	59	192	1
SI_	59	192	1	96	96	6
STR	60	0	5
SXL	60	0	5	96	192	2
HLD	61	0	0	192
HLD	61	0	7	192
TAP	61	288	4
TAP	62	0	6
TAP	62	96	3
TAP	62	192	1
STR	62	288	7
SCL	62	288	7	96	288	0
TAP	64	0	3
TAP	64	0	6
TAP	64	192	1
TAP	64	192	4
HLD	65	0	7	96
HLD	65	96	6	96
HLD	65	192	5	96
HLD	65	288	4	96
HLD	66	0	3	96
HLD	66	96	2	96
HLD	66	192	1	96
TAP	66	288	0
HLD	67	0	0	96
HLD	67	96	1	96
HLD	67	192	2	96
STR	67	288	3
SF_	67	288	3	96	96	7
BRK	68	192	0
BRK	68	192	6
HLD	69	0	0	96
HLD	69	96	1	96
HLD	69	192	2	96
HLD	69	288	3	96
HLD	70	0	4	96
HLD	70	96	5	96
HLD	70	192	6	96
TAP	70	288	7
HLD	71	0	7	96
HLD	71	96	6	96
STR	71	192	5
SUL	71	192	5	96	288	2
TAP	73	0	2
TAP	73	192	1
HLD	74	0	0	288
TAP	74	288	7
TAP	75	0	3
TAP	75	0	4
BRK	75	96	0
BRK	75	96	5
TAP	75	192	1
TAP	75	192	6
TAP	75	288	2
TAP	75	288	7
TAP	76	0	1
TAP	76	0	6
TAP	76	96	0
TAP	76	96	5
TAP	76	192	1
TAP	76	192	6
TAP	76	288	7
TAP	77	0	3
TAP	77	0	6
TAP	77	96	0
TAP	77	192	1
TAP	77	192	4
STR	77	288	7
SXR	77	288	7	96	192	2
TAP	78	288	0
TAP	78	288	7
TAP	79	0	1
TAP	79	0	6
TAP	79	96	2
TAP	79	96	7
TAP	79	192	1
TAP	79	192	6
TAP	79	288	0
TAP	79	288	5
TAP	80	0	1
TAP	80	0	6
TAP	80	96	2
TAP	80	96	7
TAP	80	192	1
TAP	80	192	6
TAP	80	288	0
TAP	81	0	1
TAP	81	0	4
TAP	81	96	7
TAP	81	192	3
TAP	81	192	6
STR	81	288	0
SCR	81	288	0	96	192	7
TAP	82	288	0
TAP	82	288	7
TAP	83	0	1
TAP	83	0	6
TAP	83	96	0
TAP	83	96	5
TAP	83	192	1
TAP	83	192	6
TAP	83	288	2
TAP	83	288	7
TAP	84	0	1
TAP	84	0	6
TAP	84	96	0
TAP	84	96	5
TAP	84	192	1
TAP	84	192	6
TAP	84	288	7
STR	85	0	2
SI_	85	0	2	96	96	5
STR	85	192	6
SI_	85	192	6	96	96	1
STR	86	0	2
SXR	86	0	2	96	192	5
HLD	87	0	0	192
HLD	87	0	7	192
TAP	87	288	0
TAP	88	0	2
TAP	88	96	7
TAP	88	192	5
STR	88	288	3
SCL	88	288	3	96	288	4
TAP	90	0	0
TAP	90	0	5
TAP	90	96	0
TAP	90	192	2
TAP	90	192	7
TAP	90	288	7
HLD	91	0	1	384
TAP	91	96	3
TAP	91	192	4
TAP	91	288	2
HLD	92	0	6	384
TAP	92	96	4
TAP	92	192	3
TAP	92	288	5
HLD	93	0	2	384
TAP	93	96	3
TAP	93	192	4
TAP	93	288	3
HLD	94	0	5	288
TAP	94	96	4
TAP	94	192	3
BRK	94	288	2
TAP	95	0	5
TAP	95	96	4
TAP	95	96	6
TAP	95	192	2
TAP	95	288	1
TAP	95	288	3
TAP	96	0	4
TAP	96	96	4
TAP	96	96	5
TAP	96	192	3
BRK	96	288	2
BRK	96	288	3
TAP	97	0	4
TAP	97	96	5
TAP	97	192	3
TAP	97	288	2
TAP	98	0	4
TAP	98	96	4
TAP	98	192	3
STR	98	288	3
SCL	98	288	3	96	768	4

T_REC_TAP	303
T_REC_BRK	12
T_REC_XTP	0
T_REC_HLD	48
T_REC_XHO	0
T_REC_STR	19
T_REC_BST	2
T_REC_XST	0
T_REC_TTP	0
T_REC_THO	0
T_REC_SLD	21
T_REC_ALL	405
T_NUM_TAP	322
T_NUM_BRK	14
T_NUM_HLD	48
T_NUM_SLD	21
T_NUM_ALL	405
T_JUDGE_TAP	336
T_JUDGE_HLD	442
T_JUDGE_SLD	21
T_JUDGE_ALL	799
TTM_EACHPAIRS	69
TTM_SCR_TAP	161000
TTM_SCR_BRK	36400
TTM_SCR_HLD	48000
TTM_SCR_SLD	31500
TTM_SCR_ALL	276900
TTM_SCR_S	267250
TTM_SCR_SS	275500
TTM_RAT_ACV	10050

