VERSION	0.00.00	1.03.00
FES_MODE	0
BPM_DEF	216.000	216.000	216.000	216.000
MET_DEF	4	4
RESOLUTION	384
CLK_DEF	384
COMPATIBLE_CODE	MA2

BPM	0	0	216.000
MET	0	0	4	4

TAP	1	0	2
TAP	1	192	3
TAP	2	0	2
TAP	2	96	2
TAP	2	192	3
TAP	3	0	5
TAP	3	192	4
TAP	4	0	5
TAP	4	96	5
TAP	4	192	4
TAP	5	0	6
TAP	5	192	7
TAP	6	0	6
TAP	6	96	6
TAP	6	192	7
TAP	7	0	1
TAP	7	192	0
TAP	8	0	1
TAP	8	96	1
TAP	8	192	0
HLD	9	0	2	192
TAP	9	192	3
TAP	10	0	2
TAP	10	96	2
TAP	10	192	3
HLD	11	0	5	192
TAP	11	192	4
TAP	12	0	5
TAP	12	96	5
TAP	12	192	4
HLD	13	0	6	192
TAP	13	192	7
TAP	14	0	6
TAP	14	96	6
TAP	14	192	7
HLD	15	0	0	96
HLD	15	192	1	96
HLD	16	0	2	96
BRK	16	192	3
BRK	16	192	4
TAP	17	0	5
TAP	17	96	5
TAP	17	192	4
TAP	18	0	2
TAP	18	96	2
TAP	18	192	3
TAP	19	0	1
TAP	19	96	1
STR	19	192	0
SI_	19	192	0	96	288	4
TAP	21	0	6
TAP	21	96	6
TAP	21	192	7
TAP	22	0	1
TAP	22	96	1
TAP	22	192	0
TAP	23	0	2
TAP	23	96	2
STR	23	192	3
SI_	23	192	3	96	288	0
HLD	25	0	0	192
HLD	25	0	7	192
TAP	26	0	7
TAP	26	96	0
BRK	26	192	0
BRK	26	192	7
TAP	27	0	1
TAP	27	96	1
TAP	27	192	0
TAP	28	0	6
TAP	28	96	6
TAP	28	192	7
HLD	29	0	0	384
HLD	29	0	1	384
TAP	30	192	2
TAP	30	192	7
HLD	31	0	6	384
HLD	31	0	7	384
BRK	32	192	0
BRK	32	192	5
HLD	33	0	6	192
HLD	33	192	5	192
HLD	34	0	4	192
TAP	34	192	3
HLD	35	0	2	192
HLD	35	192	1	192
HLD	36	0	0	192
TAP	36	192	7
HLD	37	0	6	192
TAP	37	192	7
HLD	38	0	1	192
TAP	38	192	0
STR	39	0	0
SCR	39	0	0	96	288	3
STR	39	0	7
SCL	39	0	7	96	288	4
TAP	40	192	2
TAP	40	192	5
HLD	41	0	5	192
HLD	41	192	6	192
HLD	42	0	7	192
TAP	42	192	0
HLD	43	0	1	192
HLD	43	192	2	192
HLD	44	0	3	192
TAP	44	192	4
HLD	45	0	5	192
TAP	45	192	4
HLD	46	0	2	192
STR	46	192	3
SI_	46	192	3	96	288	0
BRK	48	0	7
BRK	48	192	7
TAP	49	0	1
TAP	49	96	1
TAP	49	192	0
TAP	49	192	1
TAP	50	0	6
TAP	50	96	6
TAP	50	192	6
TAP	50	192	7
TAP	51	0	1
TAP	51	96	1
TAP	51	192	0
STR	51	192	1
SCR	51	192	1	96	336	5
TAP	53	0	6
TAP	53	96	6
TAP	53	192	6
TAP	53	192	7
TAP	54	0	1
TAP	54	96	1
TAP	54	192	0
TAP	54	192	1
TAP	55	0	7
TAP	55	96	7
TAP	55	192	0
TAP	55	288	0
TAP	56	0	0
TAP	56	0	7
TAP	56	96	0
TAP	56	96	7
TAP	56	192	1
TAP	56	192	6
TAP	57	0	2
TAP	57	96	2
TAP	57	192	2
TAP	57	192	3
TAP	58	0	5
TAP	58	96	5
TAP	58	192	4
TAP	58	192	5
TAP	59	0	3
TAP	59	96	3
TAP	59	192	4
TAP	59	288	4
TAP	60	0	3
TAP	60	0	4
TAP	60	96	3
TAP	60	96	4
TAP	60	192	2
TAP	60	192	5
HLD	61	0	6	192
TAP	61	96	7
TAP	61	192	7
HLD	62	0	1	192
TAP	62	96	0
TAP	62	192	0
HLD	63	0	6	192
HLD	63	192	5	192
HLD	64	0	4	192
STR	64	192	3
SCL	64	192	3	96	672	4
TAP	67	0	4
TAP	67	96	4
TAP	67	192	5
TAP	68	0	3
TAP	68	96	2
TAP	68	192	1
TAP	68	192	4
TAP	69	0	0
TAP	69	96	0
TAP	69	192	1
TAP	70	0	7
TAP	70	96	7
TAP	70	192	6
TAP	71	0	0
TAP	71	96	1
TAP	71	192	2
TAP	71	192	7
HLD	72	0	0	96
HLD	72	0	7	96
TAP	72	192	1
TAP	72	192	6
TAP	73	0	2
TAP	73	192	1
HLD	74	0	0	192
HLD	75	0	0	96
HLD	75	0	7	96
BRK	75	192	1
BRK	75	192	6
TAP	76	0	1
TAP	76	96	1
TAP	76	192	0
TAP	76	192	2
TAP	77	0	6
TAP	77	96	6
STR	77	192	5
SCL	77	192	5	96	336	1
TAP	77	192	7
TAP	79	0	0
TAP	79	96	0
TAP	79	192	1
TAP	79	192	7
TAP	80	0	7
TAP	80	96	7
TAP	80	192	0
TAP	80	192	6
TAP	81	0	0
TAP	81	96	0
TAP	81	192	7
TAP	81	288	7
TAP	82	0	0
TAP	82	0	6
TAP	82	96	0
TAP	82	96	6
TAP	82	192	1
TAP	82	192	5
TAP	83	0	5
TAP	83	96	5
TAP	83	192	4
TAP	83	192	6
TAP	84	0	2
TAP	84	96	2
TAP	84	192	1
TAP	84	192	3
TAP	85	0	4
TAP	85	96	4
TAP	85	192	3
TAP	85	288	3
TAP	86	0	2
TAP	86	0	4
TAP	86	96	2
TAP	86	96	4
TAP	86	192	1
TAP	86	192	5
HLD	87	0	1	192
TAP	87	96	0
TAP	87	192	0
HLD	88	0	6	192
TAP	88	96	7
TAP	88	192	7
HLD	89	0	1	192
HLD	89	192	2	192
HLD	90	0	3	192
STR	90	192	4
SCR	90	192	4	96	672	3
STR	93	0	4
SXL	93	0	4	96	528	0
TAP	95	0	1
TAP	95	96	1
TAP	95	192	0
TAP	95	192	1
TAP	96	0	6
TAP	96	96	6
TAP	96	192	6
TAP	96	192	7
TAP	97	0	1
TAP	97	96	1
TAP	97	192	0
TAP	97	288	0
TAP	98	0	7
TAP	98	96	7
TAP	98	192	6
TAP	98	192	7
HLD	99	0	5	192
TAP	99	192	4
HLD	100	0	2	192
TAP	100	192	3
HLD	101	0	5	192
TAP	101	192	4
HLD	102	0	2	192
BRK	102	192	3

T_REC_TAP	205
T_REC_BRK	11
T_REC_XTP	0
T_REC_HLD	47
T_REC_XHO	0
T_REC_STR	10
T_REC_BST	0
T_REC_XST	0
T_REC_TTP	0
T_REC_THO	0
T_REC_SLD	10
T_REC_ALL	283
T_NUM_TAP	215
T_NUM_BRK	11
T_NUM_HLD	47
T_NUM_SLD	10
T_NUM_ALL	283
T_JUDGE_TAP	226
T_JUDGE_HLD	190
T_JUDGE_SLD	10
T_JUDGE_ALL	426
TTM_EACHPAIRS	43
TTM_SCR_TAP	107500
TTM_SCR_BRK	28600
TTM_SCR_HLD	47000
TTM_SCR_SLD	15000
TTM_SCR_ALL	198100
TTM_SCR_S	191100
TTM_SCR_SS	197000
TTM_RAT_ACV	10055

