VERSION	0.00.00	1.03.00
FES_MODE	0
BPM_DEF	216.000	216.000	216.000	216.000
MET_DEF	4	4
RESOLUTION	384
CLK_DEF	384
COMPATIBLE_CODE	MA2

BPM	0	0	216.000
MET	0	0	4	4

TAP	9	0	7
TAP	9	192	7
TAP	10	0	7
TAP	11	0	0
TAP	11	192	0
TAP	12	0	0
TAP	13	0	7
TAP	13	192	7
TAP	14	0	7
TAP	15	0	0
TAP	15	192	0
TAP	16	0	0
BRK	16	192	0
HLD	17	0	7	384
HLD	19	0	6	384
TAP	21	0	5
TAP	21	192	5
TAP	22	0	5
TAP	23	0	4
TAP	23	192	4
TAP	24	0	4
HLD	25	0	3	384
HLD	27	0	2	384
TAP	29	0	1
TAP	29	192	1
TAP	30	0	1
TAP	31	0	0
TAP	31	192	0
TAP	32	0	0
TAP	33	0	7
TAP	33	192	7
TAP	34	0	7
TAP	35	0	0
TAP	35	192	0
TAP	36	0	0
TAP	37	0	1
TAP	37	192	1
TAP	38	0	1
TAP	39	0	2
TAP	39	192	2
TAP	40	0	2
TAP	40	0	3
TAP	41	0	3
TAP	41	192	3
TAP	42	0	3
TAP	43	0	4
TAP	43	192	4
TAP	44	0	4
TAP	45	0	5
TAP	45	192	5
TAP	46	0	5
TAP	47	0	6
TAP	47	192	6
BRK	48	0	6
BRK	48	0	7
TAP	49	0	0
TAP	49	192	0
TAP	50	0	0
TAP	51	0	7
TAP	51	192	7
TAP	52	0	7
TAP	53	0	6
TAP	53	192	6
TAP	54	0	6
TAP	55	0	5
TAP	55	192	4
TAP	56	0	5
TAP	56	192	4
TAP	57	0	3
TAP	57	192	3
TAP	58	0	3
TAP	59	0	2
TAP	59	192	2
TAP	60	0	2
TAP	61	0	1
TAP	61	192	1
TAP	62	0	1
TAP	63	0	0
TAP	63	192	7
TAP	64	0	0
TAP	64	192	7
TAP	65	0	0
TAP	65	192	0
TAP	66	0	1
STR	67	0	1
SI_	67	0	1	96	288	5
TAP	69	0	6
TAP	69	192	6
TAP	70	0	6
STR	71	0	6
SI_	71	0	6	96	288	2
TAP	73	0	1
TAP	73	192	1
BRK	74	0	0
TAP	75	0	7
TAP	75	192	7
TAP	76	0	7
TAP	76	192	7
TAP	77	0	0
TAP	77	192	0
TAP	78	0	0
TAP	78	0	7
TAP	79	0	1
TAP	79	192	1
TAP	80	0	1
TAP	80	192	1
TAP	81	0	2
TAP	81	192	2
TAP	82	0	2
TAP	82	0	3
TAP	83	0	3
TAP	83	192	3
TAP	84	0	3
TAP	84	192	3
TAP	85	0	4
TAP	85	192	4
TAP	86	0	3
TAP	86	0	4
TAP	87	0	5
TAP	87	192	5
TAP	88	0	5
TAP	88	192	5
TAP	89	0	6
TAP	89	192	6
TAP	90	0	6
TAP	90	0	7
STR	91	0	6
SI_	91	0	6	96	288	2
STR	93	0	1
SI_	93	0	1	96	288	5
TAP	95	0	6
TAP	95	192	6
TAP	96	0	7
TAP	96	192	7
TAP	97	0	0
TAP	97	192	0
TAP	98	0	1
TAP	98	192	1
BRK	99	0	0
BRK	99	0	7

T_REC_TAP	122
T_REC_BRK	6
T_REC_XTP	0
T_REC_HLD	4
T_REC_XHO	0
T_REC_STR	4
T_REC_BST	0
T_REC_XST	0
T_REC_TTP	0
T_REC_THO	0
T_REC_SLD	4
T_REC_ALL	140
T_NUM_TAP	126
T_NUM_BRK	6
T_NUM_HLD	4
T_NUM_SLD	4
T_NUM_ALL	140
T_JUDGE_TAP	132
T_JUDGE_HLD	32
T_JUDGE_SLD	4
T_JUDGE_ALL	168
TTM_EACHPAIRS	7
TTM_SCR_TAP	63000
TTM_SCR_BRK	15600
TTM_SCR_HLD	4000
TTM_SCR_SLD	6000
TTM_SCR_ALL	88600
TTM_SCR_S	85400
TTM_SCR_SS	88000
TTM_RAT_ACV	10068

