VERSION	0.00.00	1.03.00
FES_MODE	0
BPM_DEF	127.000	127.000	127.000	127.000
MET_DEF	4	4
RESOLUTION	384
CLK_DEF	384
COMPATIBLE_CODE	MA2

BPM	0	0	127.000
MET	0	0	4	4

TAP	5	0	4
TAP	5	0	5
HLD	5	48	4	48
HLD	5	48	5	624
HLD	5	144	4	48
HLD	5	240	3	48
HLD	5	336	3	48
HLD	6	48	2	48
HLD	6	144	3	48
HLD	6	240	4	48
TAP	6	336	3
TAP	6	336	4
TAP	7	0	2
TAP	7	0	3
HLD	7	48	2	624
HLD	7	48	3	48
HLD	7	144	3	48
HLD	7	240	4	48
HLD	7	336	4	48
HLD	8	48	5	48
HLD	8	144	4	48
HLD	8	240	3	48
TAP	8	336	3
TAP	8	336	4
STR	9	0	1
SCR	9	0	1	96	48	4
HLD	9	0	6	96
TAP	9	48	0
TAP	9	192	5
TAP	9	240	4
TAP	9	288	2
TAP	9	288	3
STR	10	0	1
SUR	10	0	1	96	48	5
HLD	10	0	6	96
TAP	10	48	0
TAP	10	192	5
TAP	10	240	4
TAP	10	288	2
TAP	10	288	3
STR	11	0	1
SCR	11	0	1	96	48	4
HLD	11	0	6	96
TAP	11	48	0
TAP	11	192	6
TAP	11	240	5
TAP	11	288	4
TAP	11	336	5
TAP	12	0	3
TAP	12	0	6
TAP	12	48	2
TAP	12	96	1
TAP	12	96	4
TAP	12	144	5
TAP	12	192	3
TAP	12	192	6
TAP	12	240	2
TAP	12	288	1
TAP	12	288	4
TAP	12	336	5
HLD	13	0	1	96
STR	13	0	6
SCL	13	0	6	96	48	3
TAP	13	48	7
TAP	13	192	2
TAP	13	240	3
TAP	13	288	4
TAP	13	288	5
HLD	14	0	1	96
STR	14	0	6
SUL	14	0	6	96	48	2
TAP	14	48	7
TAP	14	192	2
TAP	14	240	3
TAP	14	288	4
TAP	14	288	5
HLD	15	0	1	96
STR	15	0	6
SCL	15	0	6	96	48	3
TAP	15	48	7
TAP	15	192	0
TAP	15	240	7
TAP	15	288	6
TAP	15	336	5
TAP	16	0	1
TAP	16	0	4
TAP	16	48	2
TAP	16	96	3
TAP	16	96	6
TAP	16	144	5
TAP	16	192	0
TAP	16	192	4
TAP	16	240	1
TAP	16	288	3
TAP	16	288	7
TAP	16	336	6
HLD	17	0	2	96
STR	17	0	5
SCR	17	0	5	96	48	0
TAP	17	48	4
TAP	17	192	1
TAP	17	240	0
TAP	17	288	6
TAP	17	288	7
HLD	18	0	2	96
STR	18	0	5
SUR	18	0	5	96	48	1
TAP	18	48	4
TAP	18	192	1
TAP	18	240	0
TAP	18	288	6
TAP	18	288	7
HLD	19	0	2	96
STR	19	0	5
SCR	19	0	5	96	48	0
TAP	19	48	4
TAP	19	192	2
TAP	19	240	1
TAP	19	288	0
TAP	19	336	1
TAP	20	0	2
TAP	20	0	7
TAP	20	48	6
TAP	20	96	0
TAP	20	96	5
TAP	20	144	1
TAP	20	192	2
TAP	20	192	7
TAP	20	240	6
TAP	20	288	0
TAP	20	288	5
TAP	20	336	1
STR	21	0	2
SCL	21	0	2	96	48	7
HLD	21	0	5	96
TAP	21	48	3
TAP	21	192	6
TAP	21	240	7
TAP	21	288	0
TAP	21	288	1
STR	22	0	2
SUL	22	0	2	96	48	6
HLD	22	0	5	96
TAP	22	48	3
TAP	22	192	6
TAP	22	240	7
TAP	22	288	0
TAP	22	288	1
STR	23	0	2
SCL	23	0	2	96	48	7
HLD	23	0	5	96
TAP	23	48	3
TAP	23	192	4
TAP	23	240	3
TAP	23	288	2
TAP	23	336	1
STR	24	0	0
SCR	24	0	0	96	48	3
STR	24	0	5
SCR	24	0	5	96	48	0
TAP	24	240	1
TAP	24	240	6
HLD	25	0	5	96
TAP	25	0	7
TAP	25	96	2
TAP	25	144	2
TAP	25	168	3
TAP	25	216	3
TAP	25	240	4
TAP	25	288	4
TAP	25	288	6
TAP	26	0	0
HLD	26	0	2	96
TAP	26	96	5
TAP	26	144	5
TAP	26	168	4
TAP	26	216	4
TAP	26	240	3
TAP	26	288	1
TAP	26	288	3
HLD	27	0	5	96
TAP	27	0	7
TAP	27	96	2
TAP	27	144	2
TAP	27	168	3
TAP	27	216	3
TAP	27	240	4
TAP	27	288	4
TAP	27	288	6
TAP	27	336	5
TAP	28	0	1
TAP	28	0	4
TAP	28	48	2
TAP	28	96	3
TAP	28	96	6
TAP	28	144	5
TAP	28	192	1
TAP	28	192	4
BRK	28	288	2
BRK	28	288	5
HLD	29	0	1	96
TAP	29	0	3
TAP	29	96	6
TAP	29	144	6
TAP	29	168	7
TAP	29	216	7
TAP	29	240	0
TAP	29	288	0
TAP	29	288	2
TAP	30	0	4
HLD	30	0	6	96
TAP	30	96	1
TAP	30	144	1
TAP	30	168	0
TAP	30	216	0
TAP	30	240	7
TAP	30	288	5
TAP	30	288	7
TAP	30	336	0
TAP	31	0	0
TAP	31	0	1
TAP	31	48	2
TAP	31	48	7
TAP	31	96	3
TAP	31	96	6
TAP	31	144	4
TAP	31	144	5
TAP	31	192	6
TAP	31	192	7
TAP	31	240	0
TAP	31	240	5
TAP	31	288	1
TAP	31	288	4
TAP	31	336	2
TAP	31	336	3
BRK	32	0	1
BRK	32	0	6
TAP	32	240	0
TAP	32	240	5
TAP	32	288	1
TAP	32	288	6
TAP	32	336	2
TAP	32	336	7
STR	33	0	1
SCR	33	0	1	96	48	4
TAP	33	0	6
TAP	33	48	0
TAP	33	48	5
TAP	33	96	6
STR	33	192	1
SCR	33	192	1	96	48	4
TAP	33	192	6
TAP	33	240	0
TAP	33	240	5
TAP	33	288	6
TAP	33	336	7
TAP	34	0	0
TAP	34	0	1
TAP	34	48	2
TAP	34	48	7
TAP	34	96	3
TAP	34	120	4
TAP	34	168	4
HLD	34	168	5	72
TAP	34	240	4
TAP	34	288	4
TAP	34	288	5
TAP	34	336	3
TAP	34	336	6
STR	35	0	2
SCR	35	0	2	96	48	5
TAP	35	48	2
STR	35	96	7
SCL	35	96	7	96	48	3
TAP	35	144	7
STR	35	192	2
SCR	35	192	2	96	48	5
TAP	35	240	2
TAP	35	288	7
STR	35	336	7
SXR	35	336	7	96	96	2
TAP	36	0	7
TAP	36	240	2
TAP	36	240	7
TAP	36	288	1
TAP	36	288	6
TAP	36	336	0
TAP	36	336	5
TAP	37	0	1
STR	37	0	6
SCL	37	0	6	96	48	3
TAP	37	48	2
TAP	37	48	7
TAP	37	96	1
TAP	37	192	1
STR	37	192	6
SCL	37	192	6	96	48	3
TAP	37	240	2
TAP	37	240	7
TAP	37	288	1
TAP	37	336	0
TAP	38	0	6
TAP	38	0	7
TAP	38	48	0
TAP	38	48	5
TAP	38	96	4
TAP	38	120	3
HLD	38	168	2	72
TAP	38	168	3
TAP	38	240	3
TAP	38	288	2
TAP	38	288	3
TAP	38	336	1
TAP	38	336	4
STR	39	0	5
SCL	39	0	5	96	48	2
TAP	39	48	5
STR	39	96	0
SCR	39	96	0	96	48	4
TAP	39	144	0
STR	39	192	5
SCL	39	192	5	96	48	2
TAP	39	240	5
TAP	39	288	0
STR	39	336	0
SXL	39	336	0	96	96	5
TAP	40	0	0
TAP	40	192	4
TAP	40	216	4
TAP	40	240	3
TAP	40	264	3
TAP	41	0	1
TAP	41	0	6
TAP	41	96	0
TAP	41	144	0
TAP	41	160	1
TAP	41	176	2
TAP	41	192	3
TAP	41	192	4
TAP	41	216	4
TAP	41	264	5
TAP	41	312	5
TAP	41	336	4
TAP	41	360	5
TAP	42	24	2
TAP	42	48	3
TAP	42	72	2
TAP	42	120	6
TAP	42	144	4
TAP	42	168	5
TAP	42	192	3
TAP	42	216	4
TAP	42	240	2
TAP	42	264	2
TAP	42	312	5
TAP	42	336	5
TAP	43	0	3
TAP	43	0	4
TAP	43	48	2
TAP	43	72	2
TAP	43	120	5
TAP	43	144	4
TAP	43	168	6
TAP	43	216	2
TAP	43	240	3
TAP	43	264	1
TAP	43	288	1
TAP	43	336	7
TAP	43	352	6
TAP	43	368	5
TAP	44	0	3
TAP	44	0	4
TAP	44	48	2
TAP	44	72	3
TAP	44	120	3
TAP	44	120	4
TAP	44	168	2
TAP	44	168	5
TAP	44	216	1
TAP	44	216	6
TAP	44	264	1
TAP	44	288	3
TAP	44	312	2
TAP	44	336	4
TAP	44	360	3
HLD	45	0	5	48
TAP	45	48	4
TAP	45	72	4
HLD	45	96	5	48
TAP	45	144	3
TAP	45	192	2
HLD	45	192	6	48
TAP	45	240	3
TAP	45	264	3
HLD	45	288	6	48
TAP	45	336	2
TAP	46	0	1
HLD	46	0	7	48
TAP	46	48	2
TAP	46	72	2
HLD	46	96	7	48
TAP	46	144	1
TAP	46	192	0
HLD	46	192	6	48
TAP	46	240	3
TAP	46	264	5
TAP	46	288	2
TAP	46	312	4
TAP	46	336	1
TAP	46	360	3
HLD	47	0	2	48
TAP	47	48	3
TAP	47	72	3
HLD	47	96	2	48
TAP	47	144	4
HLD	47	192	1	48
TAP	47	192	5
TAP	47	240	4
TAP	47	264	4
HLD	47	288	1	48
TAP	47	336	5
HLD	48	0	2	48
TAP	48	0	6
TAP	48	48	5
TAP	48	72	5
TAP	48	96	2
TAP	48	144	3
TAP	48	144	4
HLD	48	168	3	120
HLD	48	168	4	120
BST	49	0	1
SCR	49	0	1	96	48	4
BRK	49	0	6
TAP	49	48	0
TAP	49	48	5
TAP	49	96	1
TAP	49	96	6
TAP	49	144	7
STR	49	192	1
SCR	49	192	1	96	48	4
TAP	49	192	6
TAP	49	240	0
TAP	49	240	5
TAP	49	288	1
TAP	49	288	6
TAP	49	336	7
TAP	50	0	1
TAP	50	0	6
TAP	50	48	0
TAP	50	48	5
TAP	50	96	4
TAP	50	120	3
HLD	50	168	2	72
TAP	50	168	3
TAP	50	240	1
TAP	50	288	0
TAP	50	288	3
TAP	50	336	4
TAP	50	336	7
STR	51	0	6
SCL	51	0	6	96	48	2
TAP	51	48	6
STR	51	96	0
SCR	51	96	0	96	48	4
TAP	51	144	0
STR	51	192	6
SCL	51	192	6	96	48	2
TAP	51	240	6
TAP	51	288	0
STR	51	336	0
SXL	51	336	0	96	96	5
TAP	52	0	0
TAP	52	240	2
TAP	52	240	3
TAP	52	288	1
TAP	52	288	4
TAP	52	336	0
TAP	52	336	5
TAP	53	0	1
STR	53	0	6
SCL	53	0	6	96	48	3
TAP	53	48	2
TAP	53	48	7
TAP	53	96	1
TAP	53	96	6
TAP	53	144	0
TAP	53	192	1
STR	53	192	6
SCL	53	192	6	96	48	3
TAP	53	240	2
TAP	53	240	7
TAP	53	288	1
TAP	53	288	6
TAP	53	336	0
TAP	54	0	1
TAP	54	0	6
TAP	54	48	2
TAP	54	48	7
TAP	54	96	3
TAP	54	120	4
TAP	54	168	4
HLD	54	168	5	72
TAP	54	240	6
TAP	54	288	4
TAP	54	288	7
TAP	54	336	0
TAP	54	336	3
STR	55	0	1
SCR	55	0	1	96	48	5
TAP	55	48	1
STR	55	96	7
SCL	55	96	7	96	48	3
TAP	55	144	7
STR	55	192	1
SCR	55	192	1	96	48	5
TAP	55	240	1
TAP	55	288	7
STR	55	336	7
SXR	55	336	7	96	96	2
TAP	56	0	7
TAP	56	240	0
TAP	56	240	1
TAP	56	288	2
TAP	56	288	7
TAP	56	336	3
TAP	56	336	6
TAP	57	0	2
STR	57	0	5
SCR	57	0	5	96	48	0
TAP	57	48	1
TAP	57	48	4
TAP	57	96	2
TAP	57	96	5
TAP	57	144	3
TAP	57	192	2
STR	57	192	5
SCR	57	192	5	96	48	0
TAP	57	240	1
TAP	57	240	4
TAP	57	288	2
TAP	57	288	5
TAP	57	336	3
TAP	58	0	2
TAP	58	0	5
TAP	58	48	1
TAP	58	48	4
TAP	58	96	0
TAP	58	120	7
HLD	58	168	6	72
TAP	58	168	7
TAP	58	240	5
TAP	58	288	4
TAP	58	288	7
TAP	58	336	0
TAP	58	336	3
STR	59	0	2
SCL	59	0	2	96	48	6
TAP	59	48	2
STR	59	96	4
SCR	59	96	4	96	48	0
TAP	59	144	4
STR	59	192	2
SCL	59	192	2	96	48	6
TAP	59	240	2
TAP	59	288	4
STR	59	336	4
SXL	59	336	4	96	96	1
TAP	60	0	4
TAP	60	240	6
TAP	60	240	7
TAP	60	288	0
TAP	60	288	5
TAP	60	336	1
TAP	60	336	4
STR	61	0	2
SCL	61	0	2	96	48	7
TAP	61	0	5
TAP	61	48	3
TAP	61	48	6
TAP	61	96	2
TAP	61	96	5
TAP	61	144	4
STR	61	192	2
SCL	61	192	2	96	48	7
TAP	61	192	5
TAP	61	240	3
TAP	61	240	6
TAP	61	288	2
TAP	61	288	5
TAP	61	336	4
TAP	62	0	2
TAP	62	0	5
TAP	62	48	3
TAP	62	48	6
TAP	62	96	7
TAP	62	120	0
TAP	62	168	0
HLD	62	168	1	72
TAP	62	240	2
TAP	62	288	2
TAP	62	288	4
TAP	62	336	3
TAP	62	336	5
TAP	63	0	1
TAP	63	0	4
TAP	63	48	3
TAP	63	48	6
TAP	63	96	1
TAP	63	96	4
TAP	63	144	3
TAP	63	144	6
TAP	63	192	0
TAP	63	192	5
TAP	63	240	2
TAP	63	240	7
TAP	63	288	0
TAP	63	288	5
TAP	63	336	2
TAP	63	336	7
BRK	64	0	1
BRK	64	0	6
TAP	64	288	2
TAP	64	288	5
TAP	65	0	3
TAP	65	0	4
TAP	65	48	2
TAP	65	72	3
TAP	65	120	5
TAP	65	144	4
TAP	65	192	2
TAP	65	216	3
TAP	65	240	2
TAP	65	264	2
TAP	65	312	6
TAP	65	336	6
TAP	66	0	1
TAP	66	0	4
TAP	66	48	2
TAP	66	72	2
TAP	66	120	3
TAP	66	120	6
TAP	66	168	2
TAP	66	168	5
TAP	66	216	1
TAP	66	240	3
TAP	66	264	2
TAP	66	288	4
TAP	66	312	3
TAP	66	336	5
TAP	66	360	4
TAP	67	0	6
TAP	67	48	5
TAP	67	72	5
TAP	67	120	1
TAP	67	120	4
TAP	67	168	2
TAP	67	168	5
TAP	67	216	6
TAP	67	240	4
TAP	67	264	5
TAP	67	288	3
TAP	67	312	4
TAP	67	336	2
TAP	67	360	3

T_REC_TAP	512
T_REC_BRK	7
T_REC_XTP	0
T_REC_HLD	53
T_REC_XHO	0
T_REC_STR	45
T_REC_BST	1
T_REC_XST	0
T_REC_TTP	0
T_REC_THO	0
T_REC_SLD	46
T_REC_ALL	664
T_NUM_TAP	557
T_NUM_BRK	8
T_NUM_HLD	53
T_NUM_SLD	46
T_NUM_ALL	664
T_JUDGE_TAP	565
T_JUDGE_HLD	104
T_JUDGE_SLD	46
T_JUDGE_ALL	715
TTM_EACHPAIRS	170
TTM_SCR_TAP	278500
TTM_SCR_BRK	20800
TTM_SCR_HLD	53000
TTM_SCR_SLD	69000
TTM_SCR_ALL	421300
TTM_SCR_S	407900
TTM_SCR_SS	420500
TTM_RAT_ACV	10019

