VERSION	0.00.00	1.03.00
FES_MODE	0
BPM_DEF	127.000	127.000	127.000	127.000
MET_DEF	4	4
RESOLUTION	384
CLK_DEF	384
COMPATIBLE_CODE	MA2

BPM	0	0	127.000
MET	0	0	4	4

HLD	1	0	3	192
STR	1	0	4
SXR	1	0	4	96	96	2
STR	2	0	3
SXL	2	0	3	96	96	5
HLD	2	0	4	192
HLD	3	0	3	192
STR	3	0	4
SUR	3	0	4	96	96	1
STR	4	0	3
SUL	4	0	3	96	96	6
HLD	4	0	4	192
TAP	5	0	2
TAP	5	96	1
TAP	5	96	3
TAP	5	192	5
TAP	5	288	4
TAP	5	288	6
TAP	6	0	3
TAP	6	96	0
TAP	6	96	1
TAP	6	192	4
TAP	6	288	6
TAP	6	288	7
TAP	7	0	5
TAP	7	96	4
TAP	7	96	6
TAP	7	192	2
TAP	7	288	1
TAP	7	288	3
STR	8	0	2
SCL	8	0	2	96	96	5
TAP	8	0	5
TAP	8	288	1
TAP	8	288	6
HLD	9	0	4	96
TAP	9	96	5
TAP	9	192	6
TAP	9	288	2
TAP	9	288	3
HLD	10	0	3	96
TAP	10	96	2
TAP	10	192	1
TAP	10	288	4
TAP	10	288	5
HLD	11	0	5	96
TAP	11	96	6
TAP	11	192	7
TAP	11	288	0
TAP	11	288	1
TAP	12	0	4
HLD	12	0	5	96
TAP	12	96	1
TAP	12	192	4
HLD	12	192	5	96
TAP	12	288	1
HLD	13	0	3	96
TAP	13	96	2
TAP	13	192	1
TAP	13	288	4
TAP	13	288	5
HLD	14	0	4	96
TAP	14	96	5
TAP	14	192	6
TAP	14	288	2
TAP	14	288	3
HLD	15	0	2	96
TAP	15	96	1
TAP	15	192	0
TAP	15	288	6
TAP	15	288	7
HLD	16	0	2	96
TAP	16	0	3
TAP	16	96	6
HLD	16	192	2	96
TAP	16	192	3
TAP	16	288	6
HLD	17	0	4	96
HLD	17	96	6	96
TAP	17	192	7
TAP	17	288	2
TAP	17	288	3
HLD	18	0	3	96
HLD	18	96	1	96
TAP	18	192	0
TAP	18	288	4
TAP	18	288	5
TAP	19	0	3
HLD	19	0	4	96
HLD	19	96	6	96
TAP	19	192	0
TAP	19	288	2
TAP	19	288	3
HLD	20	0	4	96
TAP	20	0	5
TAP	20	96	0
HLD	20	192	4	96
TAP	20	192	5
TAP	20	288	0
HLD	21	0	3	96
HLD	21	96	1	96
TAP	21	192	0
TAP	21	288	4
TAP	21	288	5
HLD	22	0	4	96
HLD	22	96	6	96
TAP	22	192	7
TAP	22	288	2
TAP	22	288	3
HLD	23	0	3	96
TAP	23	0	4
HLD	23	96	1	96
TAP	23	192	7
TAP	23	288	4
TAP	23	288	5
TAP	24	0	2
TAP	24	0	3
TAP	24	96	1
STR	24	96	3
SCR	24	96	3	96	96	6
STR	25	0	3
SCL	25	0	3	96	96	0
HLD	25	0	5	192
TAP	25	288	0
TAP	25	288	5
HLD	26	0	2	192
STR	26	0	4
SCR	26	0	4	96	96	7
TAP	26	288	0
TAP	26	288	7
STR	27	0	2
SCL	27	0	2	96	96	7
HLD	27	0	5	192
TAP	27	288	5
TAP	27	288	7
TAP	28	0	0
TAP	28	0	1
TAP	28	96	2
TAP	28	96	3
TAP	28	192	4
TAP	28	192	5
TAP	28	288	6
TAP	28	288	7
STR	29	0	0
SCR	29	0	0	96	96	3
HLD	29	0	6	192
TAP	29	288	3
TAP	29	288	6
HLD	30	0	1	192
STR	30	0	7
SCL	30	0	7	96	96	4
TAP	30	288	1
TAP	30	288	4
TAP	31	0	0
TAP	31	48	0
TAP	31	96	0
TAP	31	144	7
TAP	31	192	7
TAP	31	240	7
TAP	31	288	1
TAP	31	288	6
STR	32	0	1
SI_	32	0	1	96	96	5
STR	32	0	7
SI_	32	0	7	96	96	3
BRK	32	288	1
BRK	32	288	6
STR	33	0	6
SI_	33	0	6	96	48	3
STR	33	0	7
SI_	33	0	7	96	48	3
STR	33	192	6
SI_	33	192	6	96	48	3
STR	33	192	7
SI_	33	192	7	96	48	3
STR	34	0	2
SCL	34	0	2	96	96	5
TAP	34	0	5
TAP	34	240	7
TAP	34	288	1
TAP	34	288	7
TAP	35	0	5
TAP	35	48	5
TAP	35	96	4
TAP	35	96	6
TAP	35	192	2
TAP	35	240	2
TAP	35	288	1
TAP	35	288	3
TAP	36	0	1
STR	36	0	6
SCL	36	0	6	96	96	1
TAP	36	240	0
TAP	36	240	7
TAP	36	288	0
TAP	36	288	7
STR	37	0	0
SI_	37	0	0	96	48	4
STR	37	0	1
SI_	37	0	1	96	48	4
STR	37	192	0
SI_	37	192	0	96	48	4
STR	37	192	1
SI_	37	192	1	96	48	4
TAP	38	0	2
STR	38	0	5
SCR	38	0	5	96	96	2
TAP	38	240	0
TAP	38	288	0
TAP	38	288	6
TAP	39	0	2
TAP	39	48	2
TAP	39	96	1
TAP	39	96	3
TAP	39	192	5
TAP	39	240	5
TAP	39	288	4
TAP	39	288	6
STR	40	0	1
SCR	40	0	1	96	96	6
TAP	40	0	6
HLD	41	0	3	288
TAP	41	0	4
TAP	41	96	2
TAP	41	192	1
TAP	41	288	0
TAP	42	0	3
HLD	42	0	4	288
TAP	42	96	5
TAP	42	192	6
TAP	42	288	7
HLD	43	0	2	288
TAP	43	0	3
TAP	43	96	1
TAP	43	192	0
TAP	43	288	7
TAP	44	0	4
HLD	44	0	5	288
TAP	44	96	6
TAP	44	192	7
TAP	44	288	0
TAP	45	0	2
TAP	45	96	4
TAP	45	96	5
TAP	45	192	6
TAP	45	288	2
TAP	45	288	3
TAP	46	0	1
TAP	46	96	3
TAP	46	96	5
TAP	46	192	6
TAP	46	288	2
TAP	46	288	4
TAP	47	0	0
TAP	47	96	3
TAP	47	96	5
TAP	47	192	7
TAP	47	288	2
TAP	47	288	4
STR	48	0	1
SCR	48	0	1	96	96	4
STR	48	0	5
SCR	48	0	5	96	96	0
BRK	48	288	1
BRK	48	288	6
STR	49	0	0
SI_	49	0	0	96	48	5
STR	49	0	1
SI_	49	0	1	96	48	5
STR	49	192	0
SI_	49	192	0	96	48	5
STR	49	192	1
SI_	49	192	1	96	48	5
STR	50	0	1
SCL	50	0	1	96	96	4
TAP	50	0	4
TAP	50	240	6
TAP	50	288	2
TAP	50	288	6
TAP	51	0	6
TAP	51	48	6
TAP	51	96	5
TAP	51	96	7
TAP	51	192	1
TAP	51	240	1
TAP	51	288	0
TAP	51	288	2
STR	52	0	6
SLL	52	0	6	96	96	2
SLR	52	0	6	96	96	2
TAP	52	240	1
TAP	52	240	4
TAP	52	288	1
TAP	52	288	4
STR	53	0	6
SI_	53	0	6	96	48	2
STR	53	0	7
SI_	53	0	7	96	48	2
STR	53	192	6
SI_	53	192	6	96	48	2
STR	53	192	7
SI_	53	192	7	96	48	2
TAP	54	0	3
STR	54	0	6
SCR	54	0	6	96	96	3
TAP	54	240	1
TAP	54	288	1
TAP	54	288	5
TAP	55	0	1
TAP	55	48	1
TAP	55	96	0
TAP	55	96	2
TAP	55	192	6
TAP	55	240	6
TAP	55	288	5
TAP	55	288	7
STR	56	0	1
SLL	56	0	1	96	96	5
SLR	56	0	1	96	96	5
TAP	56	240	3
TAP	56	240	6
TAP	56	288	3
TAP	56	288	6
STR	57	0	6
SI_	57	0	6	96	48	3
STR	57	0	7
SI_	57	0	7	96	48	2
STR	57	192	6
SI_	57	192	6	96	48	3
STR	57	192	7
SI_	57	192	7	96	48	2
TAP	58	0	1
STR	58	0	4
SCR	58	0	4	96	96	1
TAP	58	240	3
TAP	58	288	3
TAP	58	288	5
TAP	59	0	2
TAP	59	48	2
TAP	59	96	3
TAP	59	144	2
TAP	59	192	5
TAP	59	240	5
TAP	59	288	4
TAP	59	336	5
STR	60	0	2
SLL	60	0	2	96	96	6
SLR	60	0	2	96	96	6
TAP	60	240	0
TAP	60	240	5
TAP	60	288	0
TAP	60	288	5
STR	61	0	0
SI_	61	0	0	96	48	5
STR	61	0	1
SI_	61	0	1	96	48	4
STR	61	192	0
SI_	61	192	0	96	48	5
STR	61	192	1
SI_	61	192	1	96	48	4
STR	62	0	3
SCL	62	0	3	96	96	6
TAP	62	0	6
TAP	62	240	4
TAP	62	288	2
TAP	62	288	4
TAP	63	0	5
TAP	63	48	5
TAP	63	96	3
TAP	63	144	3
TAP	63	192	4
TAP	63	240	4
TAP	63	288	2
TAP	63	288	5
STR	64	0	1
SXL	64	0	1	96	192	4
STR	64	0	7
SXR	64	0	7	96	192	4
HLD	65	0	2	96
TAP	65	0	3
TAP	65	96	1
TAP	65	192	4
HLD	65	192	5	96
TAP	65	288	6
HLD	66	0	2	96
TAP	66	0	3
TAP	66	96	0
TAP	66	192	4
HLD	66	192	5	96
TAP	66	288	7
TAP	67	0	2
TAP	67	0	5
TAP	67	96	0
TAP	67	96	7
STR	67	192	1
SI_	67	192	1	96	48	4
STR	67	192	6
SI_	67	192	6	96	48	3

T_REC_TAP	242
T_REC_BRK	4
T_REC_XTP	0
T_REC_HLD	41
T_REC_XHO	0
T_REC_STR	54
T_REC_BST	0
T_REC_XST	0
T_REC_TTP	0
T_REC_THO	0
T_REC_SLD	57
T_REC_ALL	398
T_NUM_TAP	296
T_NUM_BRK	4
T_NUM_HLD	41
T_NUM_SLD	57
T_NUM_ALL	398
T_JUDGE_TAP	300
T_JUDGE_HLD	116
T_JUDGE_SLD	57
T_JUDGE_ALL	473
TTM_EACHPAIRS	114
TTM_SCR_TAP	148000
TTM_SCR_BRK	10400
TTM_SCR_HLD	41000
TTM_SCR_SLD	85500
TTM_SCR_ALL	284900
TTM_SCR_S	276000
TTM_SCR_SS	284500
TTM_RAT_ACV	10014

