VERSION	0.00.00	1.03.00
FES_MODE	0
BPM_DEF	127.000	127.000	127.000	127.000
MET_DEF	4	4
RESOLUTION	384
CLK_DEF	384
COMPATIBLE_CODE	MA2

BPM	0	0	127.000
MET	0	0	4	4

STR	1	0	0
SCR	1	0	0	96	528	7
STR	3	0	7
SCL	3	0	7	96	528	0
TAP	5	0	6
TAP	5	96	6
TAP	5	192	7
TAP	5	288	7
TAP	6	0	0
TAP	6	96	0
TAP	6	192	0
TAP	6	192	1
TAP	7	0	1
TAP	7	96	1
TAP	7	192	0
TAP	7	288	0
TAP	8	0	7
TAP	8	96	7
TAP	8	192	6
TAP	8	192	7
HLD	9	0	5	192
TAP	9	96	4
TAP	9	192	4
HLD	10	0	2	192
TAP	10	96	3
TAP	10	192	3
HLD	11	0	5	96
TAP	11	96	4
HLD	11	192	2	96
TAP	11	288	3
TAP	12	0	5
TAP	12	96	4
TAP	12	96	5
TAP	12	192	3
TAP	12	192	6
HLD	13	0	2	192
TAP	13	96	3
TAP	13	192	3
HLD	14	0	5	192
TAP	14	96	4
TAP	14	192	4
HLD	15	0	2	96
TAP	15	96	3
HLD	15	192	5	96
TAP	15	288	4
TAP	16	0	3
TAP	16	96	2
TAP	16	192	1
TAP	16	288	0
TAP	16	288	1
HLD	17	0	6	96
TAP	17	96	7
TAP	17	192	6
TAP	17	192	7
HLD	18	0	1	96
TAP	18	96	0
TAP	18	192	0
TAP	18	192	1
HLD	19	0	6	96
TAP	19	96	7
HLD	19	192	1	96
TAP	19	288	0
HLD	20	0	6	96
TAP	20	96	7
TAP	20	192	0
TAP	20	192	5
HLD	21	0	1	96
TAP	21	96	0
TAP	21	192	0
TAP	21	192	1
HLD	22	0	6	96
TAP	22	96	7
TAP	22	192	6
TAP	22	192	7
HLD	23	0	1	96
TAP	23	96	0
HLD	23	192	6	96
TAP	23	288	7
HLD	24	0	1	96
TAP	24	96	0
TAP	24	192	2
TAP	24	192	7
TAP	25	0	6
STR	25	0	7
SI_	25	0	7	96	96	2
TAP	25	288	2
TAP	25	288	3
STR	26	0	0
SI_	26	0	0	96	96	5
TAP	26	0	1
TAP	26	288	3
TAP	26	288	6
STR	27	0	6
SI_	27	0	6	96	96	3
TAP	27	0	7
TAP	27	288	2
TAP	27	288	3
TAP	28	0	0
STR	28	0	1
SI_	28	0	1	96	96	4
TAP	28	288	3
TAP	28	288	6
STR	29	0	4
SI_	29	0	4	96	96	1
TAP	29	0	5
TAP	29	288	0
TAP	29	288	1
TAP	30	0	2
STR	30	0	3
SI_	30	0	3	96	96	6
TAP	30	288	0
TAP	30	288	5
TAP	31	0	5
TAP	31	96	4
TAP	31	96	6
TAP	31	192	2
TAP	31	288	1
TAP	31	288	3
HLD	32	0	3	192
HLD	32	0	4	192
TAP	32	288	2
TAP	32	288	5
HLD	33	0	2	96
BRK	33	0	3
TAP	33	96	4
HLD	33	192	2	96
TAP	33	192	3
TAP	33	288	4
HLD	34	0	2	96
TAP	34	0	3
TAP	34	96	4
TAP	34	192	4
TAP	34	192	5
TAP	35	0	5
TAP	35	96	4
TAP	35	96	6
TAP	35	192	2
TAP	35	288	1
STR	35	288	3
SCR	35	288	3	96	144	6
TAP	36	288	0
TAP	36	288	7
HLD	37	0	6	96
TAP	37	0	7
TAP	37	96	0
HLD	37	192	6	96
TAP	37	192	7
TAP	37	288	0
HLD	38	0	6	96
TAP	38	0	7
TAP	38	96	0
TAP	38	192	0
TAP	38	192	1
TAP	39	0	1
TAP	39	96	0
TAP	39	96	2
TAP	39	192	6
TAP	39	288	5
TAP	39	288	7
STR	40	0	0
SI_	40	0	0	96	144	3
STR	40	0	7
SI_	40	0	7	96	144	4
HLD	41	0	5	192
TAP	41	192	4
HLD	42	0	2	192
TAP	42	192	3
HLD	43	0	4	192
TAP	43	192	3
HLD	44	0	3	192
TAP	45	0	3
TAP	45	96	3
TAP	45	192	2
TAP	45	288	2
TAP	46	0	1
TAP	46	96	1
TAP	46	192	0
TAP	46	288	0
TAP	47	0	0
TAP	47	0	7
TAP	47	96	0
TAP	47	96	7
TAP	47	192	1
TAP	47	192	6
TAP	47	288	1
TAP	47	288	6
HLD	48	0	2	168
HLD	48	0	5	168
BRK	49	0	4
HLD	49	0	5	96
TAP	49	96	2
TAP	49	192	4
HLD	49	192	5	96
TAP	49	288	2
TAP	50	0	4
HLD	50	0	5	96
TAP	50	96	2
TAP	50	192	2
TAP	50	192	3
TAP	51	0	2
TAP	51	96	1
TAP	51	96	3
TAP	51	192	5
TAP	51	288	4
STR	51	288	6
SI_	51	288	6	96	144	2
TAP	52	288	3
TAP	52	288	4
HLD	53	0	2	96
TAP	53	0	3
TAP	53	96	5
HLD	53	192	2	96
TAP	53	192	3
TAP	53	288	5
HLD	54	0	2	96
TAP	54	0	3
TAP	54	96	5
TAP	54	192	4
TAP	54	192	5
TAP	55	0	5
TAP	55	96	4
TAP	55	96	6
TAP	55	192	2
TAP	55	288	1
TAP	55	288	3
STR	56	0	3
SI_	56	0	3	96	144	0
STR	56	0	4
SI_	56	0	4	96	144	7
BRK	57	0	0
HLD	57	0	1	96
TAP	57	96	6
TAP	57	192	0
HLD	57	192	1	96
TAP	57	288	6
TAP	58	0	0
HLD	58	0	1	96
TAP	58	96	6
TAP	58	192	5
TAP	58	192	7
TAP	59	0	5
TAP	59	96	6
TAP	59	96	7
TAP	59	192	2
STR	59	288	0
SI_	59	288	0	96	144	5
STR	59	288	1
SI_	59	288	1	96	144	4
TAP	60	288	4
TAP	60	288	5
HLD	61	0	6	96
TAP	61	0	7
TAP	61	96	1
HLD	61	192	6	96
TAP	61	192	7
TAP	61	288	1
HLD	62	0	6	96
TAP	62	0	7
TAP	62	96	1
TAP	62	192	0
TAP	62	192	2
HLD	63	0	2	96
TAP	63	96	0
HLD	63	192	5	96
TAP	63	288	7
STR	64	0	0
SCR	64	0	0	96	168	3
STR	64	0	7
SCL	64	0	7	96	168	4
STR	65	0	3
SXR	65	0	3	96	480	0
STR	65	0	4
SXL	65	0	4	96	480	7
TAP	67	0	0
TAP	67	0	7
TAP	67	96	1
TAP	67	96	6
TAP	67	192	2
TAP	67	192	5
TAP	67	288	3
TAP	67	288	4
TAP	67	336	3
TAP	67	336	4

T_REC_TAP	194
T_REC_BRK	3
T_REC_XTP	0
T_REC_HLD	46
T_REC_XHO	0
T_REC_STR	20
T_REC_BST	0
T_REC_XST	0
T_REC_TTP	0
T_REC_THO	0
T_REC_SLD	20
T_REC_ALL	283
T_NUM_TAP	214
T_NUM_BRK	3
T_NUM_HLD	46
T_NUM_SLD	20
T_NUM_ALL	283
T_JUDGE_TAP	217
T_JUDGE_HLD	116
T_JUDGE_SLD	20
T_JUDGE_ALL	353
TTM_EACHPAIRS	78
TTM_SCR_TAP	107000
TTM_SCR_BRK	7800
TTM_SCR_HLD	46000
TTM_SCR_SLD	30000
TTM_SCR_ALL	190800
TTM_SCR_S	184800
TTM_SCR_SS	190500
TTM_RAT_ACV	10015

