VERSION	0.00.00	1.03.00
FES_MODE	0
BPM_DEF	127.000	127.000	127.000	127.000
MET_DEF	4	4
RESOLUTION	384
CLK_DEF	384
COMPATIBLE_CODE	MA2

BPM	0	0	127.000
MET	0	0	4	4

TAP	5	0	0
TAP	5	192	0
TAP	6	0	1
TAP	6	192	1
TAP	7	0	2
TAP	7	192	2
TAP	8	0	3
TAP	8	192	3
TAP	9	0	4
TAP	9	192	4
TAP	10	0	5
TAP	10	192	4
TAP	10	192	5
TAP	11	0	4
TAP	11	192	4
TAP	12	0	3
TAP	12	96	4
TAP	12	192	3
TAP	13	0	3
TAP	13	192	3
TAP	14	0	2
TAP	14	192	2
TAP	14	192	3
TAP	15	0	3
TAP	15	192	3
TAP	16	0	4
TAP	16	96	3
BRK	16	192	4
TAP	17	0	5
TAP	17	96	5
TAP	17	192	5
TAP	18	0	6
TAP	18	96	6
TAP	18	192	6
TAP	18	192	7
TAP	19	0	7
TAP	19	96	7
TAP	19	192	7
TAP	20	0	0
TAP	20	96	7
TAP	20	192	0
TAP	21	0	1
TAP	21	96	1
TAP	21	192	1
TAP	22	0	2
TAP	22	96	2
TAP	22	192	2
TAP	22	192	3
TAP	23	0	3
TAP	23	96	3
TAP	23	192	3
TAP	24	0	4
TAP	24	96	3
TAP	24	192	4
TAP	25	0	3
TAP	25	0	4
TAP	25	192	3
TAP	25	192	4
TAP	26	0	2
TAP	26	0	5
TAP	26	192	2
TAP	26	192	5
TAP	27	0	1
TAP	27	0	6
TAP	27	192	1
TAP	27	192	6
TAP	28	0	0
TAP	28	0	7
BRK	28	192	0
BRK	28	192	7
TAP	29	0	1
TAP	29	0	6
TAP	29	192	1
TAP	29	192	6
TAP	30	0	2
TAP	30	0	5
TAP	30	192	2
TAP	30	192	5
TAP	31	0	3
TAP	31	96	3
TAP	31	192	4
TAP	31	288	4
HLD	32	0	3	192
HLD	32	0	4	192
BRK	33	0	2
TAP	33	96	2
TAP	33	192	1
TAP	33	288	1
TAP	34	0	0
TAP	34	96	7
TAP	34	192	0
TAP	35	0	7
TAP	35	96	7
TAP	35	192	6
TAP	35	288	6
HLD	36	0	4	192
HLD	36	0	5	192
TAP	37	0	5
TAP	37	96	5
TAP	37	192	6
TAP	37	288	6
TAP	38	0	7
TAP	38	96	0
TAP	38	192	7
TAP	39	0	0
TAP	39	96	0
TAP	39	192	1
TAP	39	288	1
HLD	40	0	2	192
HLD	40	0	3	192
STR	41	0	4
SI_	41	0	4	96	288	7
STR	43	0	3
SI_	43	0	3	96	288	0
STR	45	0	7
SI_	45	0	7	96	288	3
STR	47	0	0
SI_	47	0	0	96	288	4
BRK	49	0	5
TAP	49	96	5
TAP	49	192	6
TAP	49	288	6
TAP	50	0	0
TAP	50	0	7
TAP	50	96	0
TAP	50	96	7
TAP	50	192	1
TAP	50	192	6
TAP	51	0	1
TAP	51	96	1
TAP	51	192	2
TAP	51	288	2
HLD	52	0	3	192
HLD	52	0	4	192
TAP	53	0	2
TAP	53	96	2
TAP	53	192	1
TAP	53	288	1
TAP	54	0	0
TAP	54	0	7
TAP	54	96	0
TAP	54	96	7
TAP	54	192	1
TAP	54	192	6
TAP	55	0	6
TAP	55	96	6
TAP	55	192	5
TAP	55	288	5
HLD	56	0	3	192
HLD	56	0	4	192
TAP	57	0	2
TAP	57	0	3
TAP	57	96	2
TAP	57	96	3
TAP	57	192	4
TAP	57	192	5
TAP	57	288	4
TAP	57	288	5
TAP	58	0	6
TAP	58	96	7
BRK	58	192	6
TAP	59	0	0
TAP	59	96	0
TAP	59	192	1
TAP	59	288	1
HLD	60	0	2	192
HLD	60	0	3	192
TAP	61	0	4
TAP	61	0	5
TAP	61	96	4
TAP	61	96	5
TAP	61	192	2
TAP	61	192	3
TAP	61	288	2
TAP	61	288	3
TAP	62	0	1
TAP	62	96	0
BRK	62	192	1
TAP	63	0	7
TAP	63	96	7
TAP	63	192	6
TAP	63	288	6
HLD	64	0	4	192
HLD	64	0	5	192
STR	65	0	3
SI_	65	0	3	96	288	0
STR	67	0	4
SI_	67	0	4	96	288	7

T_REC_TAP	155
T_REC_BRK	7
T_REC_XTP	0
T_REC_HLD	14
T_REC_XHO	0
T_REC_STR	6
T_REC_BST	0
T_REC_XST	0
T_REC_TTP	0
T_REC_THO	0
T_REC_SLD	6
T_REC_ALL	188
T_NUM_TAP	161
T_NUM_BRK	7
T_NUM_HLD	14
T_NUM_SLD	6
T_NUM_ALL	188
T_JUDGE_TAP	168
T_JUDGE_HLD	56
T_JUDGE_SLD	6
T_JUDGE_ALL	230
TTM_EACHPAIRS	37
TTM_SCR_TAP	80500
TTM_SCR_BRK	18200
TTM_SCR_HLD	14000
TTM_SCR_SLD	9000
TTM_SCR_ALL	121700
TTM_SCR_S	117400
TTM_SCR_SS	121000
TTM_RAT_ACV	10057

