VERSION	0.00.00	1.03.00
FES_MODE	0
BPM_DEF	140.000	140.000	140.000	140.000
MET_DEF	4	4
RESOLUTION	384
CLK_DEF	384
COMPATIBLE_CODE	MA2

BPM	0	0	140.000
MET	0	0	4	4

HLD	3	0	2	96
HLD	3	0	3	96
HLD	3	192	2	96
HLD	3	192	4	96
HLD	4	0	3	96
HLD	4	0	5	96
HLD	4	192	4	96
HLD	4	192	5	96
STR	5	0	0
SI_	5	0	0	96	48	2
STR	5	0	4
SI_	5	0	4	96	48	6
STR	5	192	0
SI_	5	192	0	96	48	2
STR	5	192	4
SI_	5	192	4	96	48	6
TAP	6	0	5
TAP	6	0	7
TAP	6	96	4
TAP	6	96	6
TAP	6	192	5
TAP	6	192	7
TAP	6	288	4
TAP	6	288	6
HLD	7	0	4	48
HLD	7	0	5	48
HLD	7	96	2	48
HLD	7	96	3	48
HLD	7	192	4	48
HLD	7	192	5	48
HLD	7	288	2	48
HLD	7	288	3	48
TAP	8	0	0
TAP	8	0	7
TAP	8	48	3
TAP	8	48	4
TAP	8	96	0
TAP	8	96	7
TAP	8	144	3
TAP	8	144	4
TAP	8	192	0
TAP	8	192	7
TAP	8	240	3
TAP	8	240	4
TAP	8	288	0
TAP	8	288	7
TAP	8	336	3
TAP	8	336	4
STR	9	0	0
SV_	9	0	0	96	48	3
STR	9	0	7
SCL	9	0	7	96	48	4
STR	9	192	3
SV_	9	192	3	96	48	0
STR	9	192	4
SCR	9	192	4	96	48	7
STR	10	0	0
SV_	10	0	0	96	48	3
STR	10	0	7
SCL	10	0	7	96	48	4
HLD	10	192	3	96
HLD	10	192	4	96
TAP	10	336	3
TAP	10	360	4
STR	11	0	2
SI_	11	0	2	96	96	5
SCR	11	0	2	96	96	5
HLD	12	0	3	48
HLD	12	96	3	48
HLD	12	192	3	48
TAP	12	288	3
TAP	13	0	3
TAP	13	24	4
TAP	13	48	3
TAP	13	72	5
TAP	13	96	4
TAP	13	120	5
TAP	13	144	3
TAP	13	168	4
TAP	13	192	2
TAP	13	216	3
TAP	13	240	2
TAP	13	264	4
TAP	13	288	3
TAP	13	312	5
TAP	13	336	4
TAP	13	360	5
TAP	14	0	3
TAP	14	24	4
TAP	14	48	2
TAP	14	72	3
TAP	14	96	2
TAP	14	120	4
TAP	14	144	3
TAP	14	168	5
TAP	14	192	4
TAP	14	216	5
TAP	14	240	3
TAP	14	264	4
TAP	14	288	3
BRK	15	0	0
HLD	15	0	4	672
TAP	15	12	7
HLD	15	24	6	48
BRK	15	96	6
TAP	15	108	7
HLD	15	120	0	48
BRK	15	192	0
TAP	15	204	7
HLD	15	216	6	48
BRK	15	288	6
TAP	15	300	7
HLD	15	312	0	48
BRK	16	0	0
TAP	16	12	7
HLD	16	24	6	48
BRK	16	96	6
TAP	16	108	7
HLD	16	120	0	48
BRK	16	192	0
TAP	16	204	7
HLD	16	216	6	48
BRK	16	288	6
TAP	16	300	7
TAP	16	312	0
STR	17	0	2
SUR	17	0	2	96	192	3
STR	17	0	3
SCR	17	0	3	96	192	3
STR	18	0	4
SCL	18	0	4	96	192	4
STR	18	0	5
SUL	18	0	5	96	192	4
STR	19	0	2
SI_	19	0	2	96	48	7
STR	19	0	3
SI_	19	0	3	96	48	7
STR	19	192	4
SI_	19	192	4	96	48	0
STR	19	192	5
SI_	19	192	5	96	48	0
BST	20	0	1
SCR	20	0	1	96	48	4
BRK	20	0	6
TAP	20	96	7
TAP	20	144	7
BRK	20	192	1
BST	20	192	6
SCL	20	192	6	96	48	3
TAP	20	288	0
TAP	21	0	2
HLD	21	0	5	144
HLD	21	96	1	144
HLD	21	192	6	144
HLD	21	288	0	96
STR	22	0	7
SSR	22	0	7	96	192	3
TAP	23	0	3
TAP	23	0	4
STR	23	96	2
SCR	23	96	2	96	96	5
STR	23	96	5
SUR	23	96	5	96	96	2
STR	24	0	0
SXL	24	0	0	96	96	0
STR	24	192	7
SXR	24	192	7	96	96	7
HLD	25	96	2	96
HLD	25	192	1	96
TAP	25	288	0
HLD	26	0	4	96
HLD	26	96	5	96
HLD	26	192	7	96
STR	26	288	6
SCR	26	288	6	96	144	1
TAP	27	0	3
STR	27	96	2
SUL	27	96	2	96	144	6
TAP	27	192	4
STR	27	288	5
SUR	27	288	5	96	144	1
TAP	28	0	3
STR	28	96	2
SCR	28	96	2	96	144	5
TAP	28	192	7
BRK	28	288	0
HLD	29	96	5	96
HLD	29	192	6	96
TAP	29	288	7
HLD	30	0	3	96
HLD	30	96	2	96
HLD	30	192	0	96
STR	30	288	1
SF_	30	288	1	96	48	5
STR	31	96	1
SF_	31	96	1	96	48	5
STR	31	288	1
SF_	31	288	1	96	48	5
STR	32	96	1
SF_	32	96	1	96	48	5
TAP	32	288	1
BRK	33	0	2
BRK	33	96	1
BRK	33	192	0
HLD	33	288	0	0
HLD	33	288	7	0
TAP	34	0	4
TAP	34	0	6
TAP	34	48	5
TAP	34	96	1
TAP	34	96	3
TAP	34	144	2
TAP	34	192	0
TAP	34	192	7
HLD	34	240	1	0
HLD	34	240	6	0
HLD	34	288	1	0
HLD	34	288	6	0
STR	35	0	1
SI_	35	0	1	96	48	4
STR	35	0	6
SI_	35	0	6	96	48	4
STR	35	192	1
SI_	35	192	1	96	48	3
STR	35	192	6
SI_	35	192	6	96	48	3
TAP	36	0	4
TAP	36	0	6
HLD	36	48	4	624
HLD	36	48	6	624
HLD	38	0	5	96
STR	38	0	7
SUL	38	0	7	96	192	2
HLD	38	192	0	48
HLD	38	288	1	48
TAP	39	0	2
TAP	39	0	6
STR	39	48	2
SCR	39	48	2	96	48	5
STR	39	48	6
SUL	39	48	6	96	48	1
TAP	39	240	0
TAP	39	240	7
TAP	39	288	0
TAP	39	288	7
STR	40	0	7
SCL	40	0	7	96	48	4
STR	40	48	4
SI_	40	48	4	96	48	0
STR	40	96	0
SCR	40	96	0	96	48	3
STR	40	144	3
SI_	40	144	3	96	48	7
STR	40	192	7
SCL	40	192	7	96	48	4
STR	40	240	4
SI_	40	240	4	96	48	0
STR	40	288	0
SCR	40	288	0	96	48	3
STR	40	336	3
SI_	40	336	3	96	48	7
STR	41	0	7
SCL	41	0	7	96	48	4
STR	41	48	4
SI_	41	48	4	96	48	0
STR	41	96	0
SCR	41	96	0	96	48	3
STR	41	144	3
SI_	41	144	3	96	48	7
STR	41	192	7
SCL	41	192	7	96	48	4
BRK	41	288	0
STR	42	0	4
SI_	42	0	4	96	48	0
STR	42	0	5
SI_	42	0	5	96	48	0
STR	42	192	2
SI_	42	192	2	96	48	7
STR	42	192	3
SI_	42	192	3	96	48	7
STR	43	0	5
SI_	43	0	5	96	48	0
STR	43	0	6
SI_	43	0	6	96	48	0
STR	43	192	1
SI_	43	192	1	96	48	7
STR	43	192	2
SI_	43	192	2	96	48	7
HLD	44	0	2	96
STR	44	0	7
SLL	44	0	7	96	48	2
STR	44	192	1
SI_	44	192	1	96	48	6
SUL	44	192	1	96	48	3
STR	45	0	0
SI_	45	0	0	96	48	4
STR	45	96	7
SI_	45	96	7	96	48	1
STR	45	192	2
SI_	45	192	2	96	48	6
BRK	45	288	0
TAP	46	0	4
TAP	46	0	6
TAP	46	48	5
TAP	46	96	1
TAP	46	96	3
TAP	46	144	2
TAP	46	192	4
TAP	46	192	6
TAP	46	240	5
TAP	46	288	1
TAP	46	288	3
TAP	46	336	2
TAP	47	0	4
TAP	47	0	7
TAP	47	48	5
TAP	47	96	0
TAP	47	96	3
TAP	47	144	2
TAP	47	192	4
TAP	47	192	7
TAP	47	240	5
TAP	47	288	0
STR	47	288	3
SXL	47	288	3	96	288	6
SXR	47	288	3	96	288	0
TAP	47	336	2
STR	49	0	3
SI_	49	0	3	96	48	0
STR	49	0	4
SI_	49	0	4	96	48	7
TAP	49	96	3
TAP	49	96	4
TAP	49	192	0
TAP	49	240	0
BRK	49	288	0
STR	50	0	0
SI_	50	0	0	96	48	2
STR	50	0	4
SI_	50	0	4	96	48	6
STR	50	192	0
SI_	50	192	0	96	48	2
STR	50	192	4
SI_	50	192	4	96	48	6
TAP	51	0	5
TAP	51	0	7
TAP	51	96	4
TAP	51	96	6
TAP	51	192	5
TAP	51	192	7
TAP	51	288	4
TAP	51	288	6
HLD	52	0	4	48
HLD	52	0	5	48
HLD	52	96	2	48
HLD	52	96	3	48
HLD	52	192	4	48
HLD	52	192	5	48
HLD	52	288	2	48
HLD	52	288	3	48
TAP	53	0	0
TAP	53	0	7
TAP	53	48	3
TAP	53	48	4
TAP	53	96	0
TAP	53	96	7
TAP	53	144	3
TAP	53	144	4
TAP	53	192	0
TAP	53	192	7
TAP	53	240	3
TAP	53	240	4
TAP	53	288	0
TAP	53	288	7
TAP	53	336	3
TAP	53	336	4
STR	54	0	0
SV_	54	0	0	96	48	3
STR	54	0	7
SCL	54	0	7	96	48	4
STR	54	192	3
SV_	54	192	3	96	48	0
STR	54	192	4
SCR	54	192	4	96	48	7
STR	55	0	0
SV_	55	0	0	96	48	3
STR	55	0	7
SCL	55	0	7	96	48	4
HLD	55	192	3	96
HLD	55	192	4	96
TAP	55	336	3
TAP	55	360	4
STR	56	0	2
SI_	56	0	2	96	96	5
SCR	56	0	2	96	96	5
TAP	56	288	3
TAP	56	288	4
HLD	57	0	3	48
HLD	57	96	3	48
HLD	57	192	3	48
TAP	57	288	3
TAP	58	0	3
TAP	58	24	4
TAP	58	48	3
TAP	58	72	6
TAP	58	96	4
TAP	58	120	5
TAP	58	144	3
TAP	58	168	4
TAP	58	192	1
TAP	58	216	3
TAP	58	240	2
TAP	58	264	4
TAP	58	288	3
TAP	58	312	6
TAP	58	336	4
TAP	58	360	5
TAP	59	0	3
TAP	59	24	4
TAP	59	48	1
TAP	59	72	3
TAP	59	96	2
TAP	59	120	4
TAP	59	144	3
TAP	59	168	6
TAP	59	192	4
TAP	59	216	5
TAP	59	240	3
TAP	59	264	4
TAP	59	288	3
HLD	60	0	3	24
HLD	60	0	4	24
HLD	60	48	2	24
HLD	60	48	3	24
HLD	60	96	3	24
HLD	60	96	4	24
HLD	60	144	4	24
HLD	60	144	5	24
HLD	60	192	3	24
HLD	60	192	4	24
HLD	60	240	2	24
HLD	60	240	4	24
HLD	60	288	3	24
HLD	60	288	4	24
HLD	60	336	3	24
HLD	60	336	5	24
HLD	61	0	3	24
HLD	61	0	4	24
HLD	61	48	1	24
HLD	61	48	4	24
HLD	61	96	3	24
HLD	61	96	4	24
HLD	61	144	3	24
HLD	61	144	6	24
STR	61	192	3
SI_	61	192	3	96	48	7
STR	61	192	4
SI_	61	192	4	96	48	7
TAP	62	0	0
TAP	62	12	1
TAP	62	24	2
TAP	62	36	3
TAP	62	48	4
TAP	62	60	5
TAP	62	72	6
TAP	62	84	7
TAP	62	96	0
TAP	62	108	1
TAP	62	120	2
TAP	62	132	3
TAP	62	144	4
TAP	62	156	5
TAP	62	168	6
TAP	62	180	7
TAP	62	192	0
TAP	62	204	1
TAP	62	216	2
TAP	62	228	3
TAP	62	240	4
TAP	62	252	5
TAP	62	264	6
TAP	62	276	7
TAP	62	288	0
TAP	62	300	1
TAP	62	312	2
TAP	62	324	3
TAP	62	336	4
TAP	62	348	5
TAP	62	360	6
TAP	62	372	7
STR	63	0	0
SI_	63	0	0	96	48	5
STR	63	12	1
SI_	63	12	1	96	36	5
TAP	63	192	1
TAP	63	192	7
BRK	63	240	0
BRK	63	240	6
BRK	63	288	1
BRK	63	288	7

T_REC_TAP	213
T_REC_BRK	21
T_REC_XTP	0
T_REC_HLD	92
T_REC_XHO	0
T_REC_STR	83
T_REC_BST	2
T_REC_XST	0
T_REC_TTP	0
T_REC_THO	0
T_REC_SLD	89
T_REC_ALL	500
T_NUM_TAP	296
T_NUM_BRK	23
T_NUM_HLD	92
T_NUM_SLD	89
T_NUM_ALL	500
T_JUDGE_TAP	319
T_JUDGE_HLD	160
T_JUDGE_SLD	89
T_JUDGE_ALL	568
TTM_EACHPAIRS	105
TTM_SCR_TAP	148000
TTM_SCR_BRK	59800
TTM_SCR_HLD	92000
TTM_SCR_SLD	133500
TTM_SCR_ALL	433300
TTM_SCR_S	418100
TTM_SCR_SS	431000
TTM_RAT_ACV	10053

