VERSION	0.00.00	1.03.00
FES_MODE	0
BPM_DEF	140.000	140.000	140.000	140.000
MET_DEF	4	4
RESOLUTION	384
CLK_DEF	384
COMPATIBLE_CODE	MA2

BPM	0	0	140.000
MET	0	0	4	4

HLD	3	0	2	96
HLD	3	0	3	96
HLD	3	192	2	96
HLD	3	192	4	96
HLD	4	0	3	96
HLD	4	0	5	96
HLD	4	192	4	96
HLD	4	192	5	96
TAP	5	0	0
TAP	5	0	4
TAP	5	96	2
TAP	5	96	6
TAP	5	192	0
TAP	5	192	4
TAP	5	288	2
TAP	5	288	6
TAP	6	0	5
TAP	6	0	7
TAP	6	96	4
TAP	6	96	6
TAP	6	192	5
TAP	6	192	7
TAP	6	288	4
TAP	6	288	6
HLD	7	0	1	288
HLD	7	0	6	288
HLD	8	0	2	48
HLD	8	0	5	48
HLD	8	96	2	48
HLD	8	96	5	48
HLD	8	192	2	48
HLD	8	192	5	48
TAP	8	288	2
TAP	8	288	5
TAP	9	0	0
TAP	9	0	7
TAP	9	96	6
TAP	9	192	3
TAP	9	192	4
TAP	9	288	5
TAP	10	0	0
TAP	10	0	7
TAP	10	96	6
HLD	10	192	3	96
HLD	10	192	4	96
HLD	11	0	2	96
HLD	11	0	3	96
HLD	11	192	4	96
HLD	11	192	5	96
HLD	12	0	3	48
HLD	12	96	3	48
HLD	12	192	3	48
TAP	12	288	3
TAP	13	0	3
TAP	13	0	4
TAP	13	96	2
TAP	13	96	3
TAP	13	192	3
TAP	13	192	4
TAP	13	288	4
TAP	13	288	5
TAP	14	0	3
TAP	14	0	4
TAP	14	96	2
TAP	14	96	3
TAP	14	192	3
TAP	14	192	4
TAP	14	288	4
TAP	14	288	5
HLD	15	0	5	672
TAP	15	96	0
TAP	15	192	6
TAP	15	288	0
TAP	16	0	6
TAP	16	96	0
TAP	16	192	6
TAP	16	288	0
HLD	17	0	3	48
HLD	17	0	4	48
HLD	17	96	3	48
HLD	17	96	4	48
HLD	17	192	3	48
HLD	17	192	4	48
HLD	17	288	3	48
HLD	17	288	4	48
TAP	18	0	2
TAP	18	0	3
TAP	18	96	4
TAP	18	96	5
TAP	18	192	0
TAP	18	192	1
BRK	18	288	7
STR	19	0	4
SUR	19	0	4	96	192	3
STR	19	0	5
SCR	19	0	5	96	192	2
STR	20	0	2
SCL	20	0	2	96	192	5
STR	20	0	3
SUL	20	0	3	96	192	4
HLD	21	0	6	96
HLD	21	96	5	96
HLD	21	192	4	96
HLD	21	288	3	96
HLD	22	0	2	96
HLD	22	96	1	96
HLD	22	192	0	96
HLD	22	288	1	96
HLD	23	0	2	96
HLD	23	96	3	96
HLD	23	192	4	96
HLD	23	288	5	96
HLD	24	0	6	96
STR	24	96	7
SF_	24	96	7	96	96	3
HLD	25	0	2	192
TAP	25	96	3
HLD	25	192	5	192
TAP	25	288	4
HLD	26	0	2	192
TAP	26	96	3
HLD	26	192	5	96
STR	26	288	4
SCL	26	288	4	96	288	6
TAP	28	0	2
TAP	28	96	1
TAP	28	96	3
TAP	28	192	5
TAP	28	288	4
TAP	28	288	6
HLD	29	0	1	96
HLD	29	96	2	96
HLD	29	192	3	96
HLD	29	288	4	96
HLD	30	0	5	96
HLD	30	96	6	96
HLD	30	192	7	96
HLD	30	288	6	96
HLD	31	0	5	96
HLD	31	96	4	96
HLD	31	192	3	96
HLD	31	288	2	96
HLD	32	0	1	96
STR	32	96	0
SF_	32	96	0	96	96	4
BRK	33	0	2
BRK	33	96	1
BRK	33	192	0
BRK	33	288	0
BRK	33	288	7
HLD	34	0	6	192
TAP	34	96	7
HLD	34	192	1	96
TAP	34	288	0
TAP	35	0	4
TAP	35	0	5
TAP	35	96	3
TAP	35	96	6
TAP	35	192	2
TAP	35	192	3
TAP	35	288	1
TAP	35	288	4
TAP	36	0	0
TAP	36	0	7
TAP	36	96	1
TAP	36	96	6
TAP	36	192	2
TAP	36	192	5
STR	36	288	3
SCL	36	288	3	96	192	0
STR	36	288	4
SCR	36	288	4	96	192	7
BRK	37	288	1
BRK	37	288	6
HLD	38	0	5	96
TAP	38	96	4
HLD	38	192	0	48
HLD	38	192	2	48
HLD	38	288	0	48
HLD	38	288	2	48
STR	39	0	1
SCL	39	0	1	96	96	6
TAP	39	288	3
TAP	39	288	4
HLD	40	0	2	96
TAP	40	96	3
HLD	40	192	5	48
HLD	40	192	7	48
HLD	40	288	5	48
HLD	40	288	7	48
STR	41	0	6
SCR	41	0	6	96	96	1
TAP	41	288	3
TAP	41	288	4
HLD	42	0	2	96
HLD	42	96	0	96
HLD	42	192	7	96
TAP	42	288	5
HLD	43	0	5	96
HLD	43	96	7	96
HLD	43	192	0	96
TAP	43	288	2
TAP	44	0	4
TAP	44	0	5
TAP	44	96	2
TAP	44	96	7
TAP	44	192	2
TAP	44	192	3
TAP	44	288	0
TAP	44	288	5
STR	45	0	0
SCL	45	0	0	96	96	5
STR	45	0	1
SCR	45	0	1	96	96	4
TAP	45	288	2
TAP	45	288	7
HLD	46	0	4	96
HLD	46	96	5	96
HLD	46	192	4	96
HLD	46	288	3	96
HLD	47	0	2	96
HLD	47	96	3	96
HLD	47	192	4	96
STR	47	288	5
SCR	47	288	5	96	288	2
HLD	49	0	3	96
HLD	49	0	4	96
BRK	49	192	1
BRK	49	192	6
BRK	49	288	1
BRK	49	288	6
TAP	50	0	0
TAP	50	0	4
TAP	50	96	2
TAP	50	96	6
TAP	50	192	0
TAP	50	192	4
TAP	50	288	2
TAP	50	288	6
TAP	51	0	5
TAP	51	0	7
TAP	51	96	4
TAP	51	96	6
TAP	51	192	5
TAP	51	192	7
TAP	51	288	4
TAP	51	288	6
HLD	52	0	1	96
HLD	52	0	6	96
HLD	52	192	1	96
HLD	52	192	6	96
HLD	53	0	2	48
HLD	53	0	5	48
HLD	53	96	2	48
HLD	53	96	5	48
HLD	53	192	2	48
HLD	53	192	5	48
TAP	53	288	2
TAP	53	288	5
TAP	54	0	0
STR	54	0	7
SCL	54	0	7	96	48	5
TAP	54	192	3
STR	54	192	4
SCR	54	192	4	96	48	6
TAP	55	0	0
STR	55	0	7
SCL	55	0	7	96	48	5
HLD	55	192	3	96
HLD	55	192	4	96
HLD	56	0	2	96
HLD	56	0	3	96
HLD	56	192	4	96
HLD	56	192	5	96
HLD	57	0	3	48
HLD	57	96	3	48
HLD	57	192	3	48
TAP	57	288	3
TAP	58	0	3
TAP	58	0	4
TAP	58	96	2
TAP	58	96	4
TAP	58	192	3
TAP	58	192	4
TAP	58	288	3
TAP	58	288	5
TAP	59	0	3
TAP	59	0	4
TAP	59	96	2
TAP	59	96	4
TAP	59	192	3
TAP	59	192	4
TAP	59	288	3
TAP	59	288	5
TAP	60	0	4
TAP	60	48	3
TAP	60	96	4
TAP	60	144	3
TAP	60	192	4
TAP	60	240	3
TAP	60	288	4
TAP	60	336	3
TAP	61	0	4
TAP	61	48	3
TAP	61	96	4
TAP	61	144	3
STR	61	192	4
SCR	61	192	4	96	192	3
TAP	62	192	6
TAP	62	192	7
TAP	62	288	0
TAP	62	288	1
STR	63	0	0
SCL	63	0	0	96	96	5
STR	63	0	1
SUL	63	0	1	96	96	4
BRK	63	288	6
BRK	63	288	7

T_REC_TAP	154
T_REC_BRK	14
T_REC_XTP	0
T_REC_HLD	110
T_REC_XHO	0
T_REC_STR	20
T_REC_BST	0
T_REC_XST	0
T_REC_TTP	0
T_REC_THO	0
T_REC_SLD	20
T_REC_ALL	318
T_NUM_TAP	174
T_NUM_BRK	14
T_NUM_HLD	110
T_NUM_SLD	20
T_NUM_ALL	318
T_JUDGE_TAP	188
T_JUDGE_HLD	214
T_JUDGE_SLD	20
T_JUDGE_ALL	422
TTM_EACHPAIRS	99
TTM_SCR_TAP	87000
TTM_SCR_BRK	36400
TTM_SCR_HLD	110000
TTM_SCR_SLD	30000
TTM_SCR_ALL	263400
TTM_SCR_S	254150
TTM_SCR_SS	262000
TTM_RAT_ACV	10053

