VERSION	0.00.00	1.03.00
FES_MODE	0
BPM_DEF	140.000	140.000	140.000	140.000
MET_DEF	4	4
RESOLUTION	384
CLK_DEF	384
COMPATIBLE_CODE	MA2

BPM	0	0	140.000
MET	0	0	4	4

TAP	3	0	2
TAP	3	0	3
TAP	3	192	3
TAP	3	192	4
TAP	4	0	4
TAP	4	0	5
TAP	4	192	3
TAP	4	192	6
TAP	5	0	2
TAP	5	0	4
TAP	5	192	4
TAP	5	192	6
TAP	6	0	5
TAP	6	0	7
TAP	6	192	4
TAP	6	192	6
HLD	7	0	2	96
HLD	7	0	4	96
HLD	7	192	3	96
HLD	7	192	5	96
HLD	8	0	3	96
HLD	8	0	4	96
HLD	8	192	2	96
HLD	8	192	5	96
TAP	9	0	6
TAP	9	0	7
TAP	9	192	4
TAP	9	192	5
TAP	10	0	6
TAP	10	0	7
TAP	10	192	4
TAP	10	192	5
TAP	11	0	2
TAP	11	0	3
TAP	11	192	4
TAP	11	192	5
HLD	12	0	4	192
HLD	12	0	6	192
HLD	13	0	1	576
HLD	13	0	6	576
TAP	15	0	4
TAP	15	0	6
TAP	15	192	2
TAP	15	192	4
TAP	16	0	4
TAP	16	0	5
TAP	16	96	4
TAP	16	96	5
TAP	16	192	3
TAP	16	192	6
HLD	17	0	3	96
HLD	17	0	4	96
TAP	17	192	2
STR	17	192	5
SI_	17	192	5	96	240	2
STR	19	0	3
SI_	19	0	3	96	192	0
STR	19	0	4
SI_	19	0	4	96	192	7
TAP	20	192	0
TAP	20	192	1
HLD	21	0	0	96
HLD	21	0	7	96
TAP	21	192	6
TAP	21	192	7
HLD	22	0	5	96
HLD	22	0	7	96
TAP	22	192	1
TAP	22	192	7
HLD	23	0	5	96
HLD	23	0	7	96
TAP	23	192	4
TAP	23	192	6
HLD	24	0	5	96
HLD	24	0	7	96
TAP	24	192	0
TAP	24	192	1
HLD	25	0	0	96
HLD	25	0	7	96
TAP	25	192	1
TAP	25	192	6
HLD	26	0	6	96
HLD	26	0	7	96
TAP	26	192	4
TAP	26	192	5
HLD	27	0	6	96
HLD	27	0	7	96
TAP	27	192	4
TAP	27	192	5
HLD	28	0	2	96
HLD	28	0	3	96
TAP	28	192	4
TAP	28	192	5
HLD	29	0	4	96
HLD	29	0	6	96
TAP	29	192	4
TAP	29	192	6
HLD	30	0	1	96
HLD	30	0	6	96
TAP	30	192	1
TAP	30	192	6
HLD	31	0	2	96
HLD	31	0	5	96
TAP	31	192	2
TAP	31	192	5
HLD	32	0	3	96
HLD	32	0	4	96
TAP	32	192	3
TAP	32	192	4
TAP	33	0	4
TAP	33	0	5
TAP	33	96	4
TAP	33	96	5
BRK	33	192	3
BRK	33	192	6
HLD	34	0	3	96
HLD	34	0	4	96
TAP	34	192	2
STR	34	192	5
SI_	34	192	5	96	240	2
HLD	36	0	3	672
TAP	38	0	5
TAP	38	192	4
TAP	38	192	5
STR	39	0	2
SI_	39	0	2	96	144	7
STR	39	0	3
SI_	39	0	3	96	144	6
TAP	40	0	0
TAP	40	192	0
TAP	40	192	1
STR	41	0	6
SI_	41	0	6	96	144	3
STR	41	0	7
SI_	41	0	7	96	144	2
HLD	42	0	2	96
HLD	42	0	3	96
TAP	42	192	1
TAP	42	192	4
HLD	43	0	4	96
HLD	43	0	5	96
TAP	43	192	3
TAP	43	192	6
HLD	44	0	2	96
HLD	44	0	3	96
HLD	44	192	4	96
HLD	44	192	5	96
STR	45	0	3
SI_	45	0	3	96	144	0
STR	45	0	4
SI_	45	0	4	96	144	7
HLD	46	0	6	96
HLD	46	0	7	96
TAP	46	192	0
TAP	46	192	5
HLD	47	0	0	96
HLD	47	0	1	96
TAP	47	192	2
TAP	47	192	7
STR	48	0	0
SI_	48	0	0	96	144	3
STR	48	0	7
SI_	48	0	7	96	144	4
HLD	49	0	3	96
HLD	49	0	4	96
TAP	49	192	2
TAP	49	192	5
TAP	49	288	2
TAP	49	288	5
HLD	50	0	2	96
HLD	50	0	4	96
HLD	50	192	4	96
HLD	50	192	6	96
HLD	51	0	5	96
HLD	51	0	7	96
HLD	51	192	4	96
HLD	51	192	6	96
TAP	52	0	2
TAP	52	0	4
TAP	52	96	3
TAP	52	96	5
TAP	52	192	2
TAP	52	192	4
TAP	52	288	3
TAP	52	288	5
HLD	53	0	3	96
HLD	53	0	4	96
HLD	53	192	2	96
HLD	53	192	5	96
HLD	54	0	6	96
HLD	54	0	7	96
HLD	54	192	4	96
HLD	54	192	5	96
HLD	55	0	6	96
HLD	55	0	7	96
HLD	55	192	4	96
HLD	55	192	5	96
HLD	56	0	2	96
HLD	56	0	3	96
HLD	56	192	4	96
HLD	56	192	5	96
TAP	57	0	4
TAP	57	0	6
TAP	57	96	4
TAP	57	96	6
TAP	57	192	4
TAP	57	192	6
HLD	58	0	1	576
HLD	58	0	6	576
HLD	60	0	4	96
HLD	60	0	6	96
HLD	60	192	2	96
HLD	60	192	4	96
TAP	61	0	4
TAP	61	0	5
TAP	61	96	4
TAP	61	96	5
TAP	61	192	3
TAP	61	192	6
HLD	62	0	3	96
HLD	62	0	4	96
TAP	62	192	2
STR	62	192	5
SI_	62	192	5	96	240	2
TAP	63	288	3

T_REC_TAP	110
T_REC_BRK	2
T_REC_XTP	0
T_REC_HLD	87
T_REC_XHO	0
T_REC_STR	13
T_REC_BST	0
T_REC_XST	0
T_REC_TTP	0
T_REC_THO	0
T_REC_SLD	13
T_REC_ALL	225
T_NUM_TAP	123
T_NUM_BRK	2
T_NUM_HLD	87
T_NUM_SLD	13
T_NUM_ALL	225
T_JUDGE_TAP	125
T_JUDGE_HLD	230
T_JUDGE_SLD	13
T_JUDGE_ALL	368
TTM_EACHPAIRS	104
TTM_SCR_TAP	61500
TTM_SCR_BRK	5200
TTM_SCR_HLD	87000
TTM_SCR_SLD	19500
TTM_SCR_ALL	173200
TTM_SCR_S	167850
TTM_SCR_SS	173000
TTM_RAT_ACV	10011

