VERSION	0.00.00	1.03.00
FES_MODE	0
BPM_DEF	140.000	140.000	140.000	140.000
MET_DEF	4	4
RESOLUTION	384
CLK_DEF	384
COMPATIBLE_CODE	MA2

BPM	0	0	140.000
MET	0	0	4	4

TAP	5	0	3
TAP	5	96	3
TAP	5	192	4
TAP	6	0	4
TAP	6	0	5
TAP	6	192	4
TAP	6	192	5
HLD	7	0	2	192
HLD	7	0	5	192
HLD	8	0	2	192
HLD	8	0	5	192
STR	9	0	3
SI_	9	0	3	96	288	0
STR	9	0	4
SI_	9	0	4	96	288	7
STR	11	0	0
SI_	11	0	0	96	288	3
STR	11	0	7
SI_	11	0	7	96	288	4
TAP	13	0	4
TAP	13	96	4
TAP	13	192	4
TAP	14	0	5
TAP	14	96	5
TAP	14	192	5
TAP	15	0	6
TAP	15	96	6
TAP	15	192	6
TAP	16	0	7
TAP	16	96	7
TAP	16	192	7
TAP	17	0	0
TAP	17	96	0
TAP	17	192	0
TAP	18	0	1
TAP	18	96	1
TAP	18	192	1
TAP	19	0	2
TAP	19	96	2
TAP	19	192	2
TAP	20	0	3
TAP	20	96	3
TAP	20	192	3
STR	21	0	2
SI_	21	0	2	96	288	5
STR	23	0	6
SI_	23	0	6	96	288	1
STR	25	0	1
SI_	25	0	1	96	288	5
STR	27	0	6
SI_	27	0	6	96	288	2
HLD	29	0	3	384
HLD	31	0	4	384
TAP	33	0	4
TAP	33	96	4
TAP	33	192	4
TAP	34	0	3
TAP	34	96	3
TAP	34	192	3
TAP	35	0	4
TAP	35	0	5
TAP	35	192	2
TAP	35	192	3
STR	36	0	3
SI_	36	0	3	96	288	0
STR	36	0	4
SI_	36	0	4	96	288	7
TAP	38	0	7
TAP	38	96	7
TAP	38	192	7
TAP	39	0	6
TAP	39	96	6
TAP	39	192	6
TAP	39	192	7
TAP	40	0	5
TAP	40	96	5
TAP	40	192	5
TAP	41	0	4
TAP	41	96	4
TAP	41	192	3
TAP	41	192	4
TAP	42	0	2
TAP	42	96	2
TAP	42	192	2
TAP	43	0	1
TAP	43	96	1
TAP	43	192	0
TAP	43	192	1
HLD	44	0	0	384
HLD	44	0	7	384
TAP	46	0	6
TAP	46	96	6
TAP	46	192	7
TAP	47	0	1
TAP	47	96	1
TAP	47	192	0
STR	48	0	1
SI_	48	0	1	96	288	5
TAP	50	0	4
TAP	50	96	4
TAP	50	192	3
TAP	51	0	4
TAP	51	0	5
TAP	51	192	4
TAP	51	192	5
HLD	52	0	2	192
HLD	52	0	5	192
TAP	53	0	2
TAP	53	0	5
TAP	53	192	1
TAP	53	192	6
STR	54	0	0
SI_	54	0	0	96	288	3
STR	54	0	7
SI_	54	0	7	96	288	4
TAP	56	0	2
TAP	56	0	3
TAP	56	192	4
TAP	56	192	5
TAP	57	0	2
TAP	57	0	5
TAP	57	192	2
TAP	57	192	3
TAP	58	0	3
TAP	58	96	4
TAP	58	192	3
TAP	58	288	4
TAP	59	0	3
TAP	59	192	3
TAP	59	192	4
TAP	60	0	4
TAP	60	0	5
TAP	60	192	6
TAP	60	192	7
TAP	61	0	0
TAP	61	0	1
TAP	61	192	2
TAP	61	192	3
TAP	62	0	2
TAP	62	0	3
TAP	62	192	0
TAP	62	192	1
TAP	63	0	6
TAP	63	0	7
BRK	63	192	4
BRK	63	192	5

T_REC_TAP	108
T_REC_BRK	2
T_REC_XTP	0
T_REC_HLD	10
T_REC_XHO	0
T_REC_STR	13
T_REC_BST	0
T_REC_XST	0
T_REC_TTP	0
T_REC_THO	0
T_REC_SLD	13
T_REC_ALL	146
T_NUM_TAP	121
T_NUM_BRK	2
T_NUM_HLD	10
T_NUM_SLD	13
T_NUM_ALL	146
T_JUDGE_TAP	123
T_JUDGE_HLD	56
T_JUDGE_SLD	13
T_JUDGE_ALL	192
TTM_EACHPAIRS	32
TTM_SCR_TAP	60500
TTM_SCR_BRK	5200
TTM_SCR_HLD	10000
TTM_SCR_SLD	19500
TTM_SCR_ALL	95200
TTM_SCR_S	92150
TTM_SCR_SS	95000
TTM_RAT_ACV	10021

