VERSION	0.00.00	1.03.00
FES_MODE	0
BPM_DEF	240.000	240.000	240.000	240.000
MET_DEF	4	4
RESOLUTION	384
CLK_DEF	384
COMPATIBLE_CODE	MA2

BPM	0	0	240.000
MET	0	0	4	4
MET	34	0	4	2
MET	34	192	4	4

TAP	2	0	6
TAP	2	96	6
TAP	2	144	1
TAP	2	240	6
TAP	2	336	6
TAP	3	48	6
TAP	3	144	6
TAP	3	240	6
TAP	3	336	6
HLD	4	48	1	528
HLD	5	0	0	576
HLD	6	0	7	384
TAP	7	0	6
BRK	7	192	5
BRK	7	288	4
BRK	7	288	5
BST	8	0	2
SXR	8	0	2	96	576	7
BST	8	0	3
SXL	8	0	3	96	576	6
TAP	10	0	6
TAP	10	0	7
TAP	10	144	0
TAP	10	144	5
TAP	10	288	1
TAP	10	288	4
TAP	11	48	2
TAP	11	48	3
BRK	11	192	2
BRK	11	288	4
BRK	11	288	5
BST	12	0	4
SI_	12	0	4	96	192	7
SCL	12	0	4	96	192	7
TAP	13	96	1
STR	13	192	0
SCR	13	192	0	96	48	3
STR	13	192	7
SCL	13	192	7	96	48	4
TAP	13	288	0
TAP	13	288	7
TAP	14	48	7
TAP	14	96	7
STR	14	192	1
SI_	14	192	1	96	48	4
TAP	14	288	0
STR	15	0	6
SI_	15	0	6	96	48	3
TAP	15	96	7
BRK	15	192	2
BRK	15	288	1
BRK	15	288	5
BRK	16	0	0
BRK	16	0	6
BRK	16	144	7
TAP	16	288	7
STR	17	0	6
SI_	17	0	6	96	48	3
TAP	17	96	0
STR	17	192	1
SI_	17	192	1	96	48	4
TAP	17	288	7
STR	18	0	6
SI_	18	0	6	96	48	3
TAP	18	96	0
STR	18	192	1
SI_	18	192	1	96	48	4
TAP	18	288	7
STR	19	0	6
SI_	19	0	6	96	48	3
TAP	19	96	0
BRK	19	192	0
BRK	19	288	1
BRK	19	288	5
BST	20	0	2
SI_	20	0	2	96	192	7
BST	20	0	4
SI_	20	0	4	96	192	7
TAP	21	96	6
STR	21	192	0
SCR	21	192	0	96	48	3
STR	21	192	7
SCL	21	192	7	96	48	4
TAP	21	288	0
TAP	21	288	7
TAP	22	48	0
TAP	22	96	0
STR	22	192	6
SI_	22	192	6	96	48	3
TAP	22	288	7
STR	23	0	1
SI_	23	0	1	96	48	4
TAP	23	96	0
BRK	23	192	6
BRK	23	288	2
BRK	24	0	1
BRK	24	0	7
BRK	24	144	0
TAP	24	288	0
STR	25	0	1
SCR	25	0	1	96	48	4
TAP	25	96	7
STR	25	192	6
SCL	25	192	6	96	48	3
TAP	25	288	0
STR	26	0	1
SCR	26	0	1	96	48	4
TAP	26	96	7
STR	26	192	6
SCL	26	192	6	96	48	3
TAP	26	288	0
STR	27	0	0
SUR	27	0	0	96	48	5
TAP	27	96	6
STR	27	192	7
SUL	27	192	7	96	48	2
TAP	27	288	1
TAP	28	0	0
HLD	28	96	2	96
HLD	28	192	0	96
HLD	28	288	7	96
STR	29	0	5
SI_	29	0	5	96	48	2
TAP	29	48	5
HLD	29	192	0	96
HLD	29	288	7	96
HLD	30	0	1	144
TAP	30	144	4
TAP	30	192	4
TAP	30	288	5
TAP	31	0	3
TAP	31	0	5
BRK	31	48	4
BRK	31	144	2
BRK	31	240	1
BRK	31	240	6
TAP	32	0	0
TAP	32	0	7
HLD	32	96	6	144
HLD	32	240	0	144
TAP	33	0	3
TAP	33	48	2
STR	33	96	3
SUL	33	96	3	96	96	7
TAP	33	144	2
TAP	34	0	2
TAP	34	192	1
TAP	35	0	0
BRK	35	192	0
BRK	35	192	7
BRK	36	0	4
BRK	36	96	1
BRK	36	96	5
BST	36	192	0
SV_	36	192	0	96	192	3
BST	36	192	6
SV_	36	192	6	96	192	3
TAP	37	288	1
STR	38	0	0
SCL	38	0	0	96	48	5
STR	38	0	1
SCR	38	0	1	96	48	4
TAP	38	96	0
TAP	38	96	1
TAP	38	240	7
TAP	38	288	7
STR	39	0	1
SCR	39	0	1	96	48	4
TAP	39	96	0
STR	39	192	6
SCL	39	192	6	96	48	3
TAP	39	288	7
BRK	40	0	2
BRK	40	96	1
BRK	40	96	5
BRK	40	192	0
BRK	40	192	6
BRK	40	336	7
TAP	41	96	7
STR	41	192	6
SCL	41	192	6	96	48	3
TAP	41	288	0
STR	42	0	1
SCR	42	0	1	96	48	4
TAP	42	96	7
STR	42	192	6
SCL	42	192	6	96	48	3
TAP	42	288	0
STR	43	0	1
SCR	43	0	1	96	48	4
TAP	43	96	7
STR	43	192	6
SCL	43	192	6	96	48	3
TAP	43	288	0
BRK	44	0	0
BRK	44	96	4
BRK	44	96	5
BST	44	192	6
SI_	44	192	6	96	192	1
BST	44	192	7
SI_	44	192	7	96	192	4
TAP	45	288	6
STR	46	0	6
SCL	46	0	6	96	48	3
STR	46	0	7
SCR	46	0	7	96	48	2
TAP	46	96	6
TAP	46	96	7
TAP	46	240	0
TAP	46	288	0
STR	47	0	6
SUL	47	0	6	96	48	2
TAP	47	96	7
STR	47	192	1
SUR	47	192	1	96	48	5
TAP	47	288	0
BRK	48	0	6
BRK	48	96	0
BRK	48	96	2
BRK	48	192	1
BRK	48	192	7
BRK	48	336	0
TAP	49	96	0
STR	49	192	1
SUR	49	192	1	96	48	5
TAP	49	288	7
STR	50	0	6
SUL	50	0	6	96	48	2
TAP	50	96	0
STR	50	192	1
SUR	50	192	1	96	48	5
TAP	50	288	7
STR	51	0	6
SUL	51	0	6	96	48	2
TAP	51	96	0
STR	51	192	0
SUR	51	192	0	96	48	5
TAP	51	288	6
STR	52	0	7
SUL	52	0	7	96	48	2
TAP	52	96	1
TAP	52	192	0
HLD	52	288	6	144
TAP	53	48	7
TAP	53	192	7
TAP	53	240	6
TAP	53	288	0
TAP	53	288	5
HLD	54	0	7	96
TAP	54	96	0
TAP	54	192	6
TAP	54	192	7
HLD	54	288	1	144
HLD	55	48	0	144
TAP	55	192	2
BRK	55	240	4
BRK	55	336	2
BST	56	48	4
SI_	56	48	4	96	48	2
BST	56	48	5
SI_	56	48	5	96	48	7
TAP	56	288	6
HLD	56	336	6	96
HLD	57	48	1	144
TAP	57	192	0
TAP	57	240	2
STR	57	288	0
SUL	57	288	0	96	96	4
TAP	57	336	2
TAP	58	192	2
TAP	59	0	1
TAP	59	192	0
BRK	60	0	7
BRK	60	96	0
BRK	60	96	7
BRK	60	192	2
BRK	60	192	5
BRK	60	336	0
TAP	61	192	1
TAP	61	240	1
TAP	61	288	6
TAP	61	336	6
TAP	62	0	0
TAP	62	48	0
TAP	62	96	7
TAP	62	144	7
TAP	62	192	1
TAP	62	240	0
TAP	62	288	1
TAP	62	336	6
TAP	63	0	7
TAP	63	48	6
TAP	63	96	2
TAP	63	144	3
TAP	63	192	2
TAP	63	240	5
TAP	63	288	4
TAP	63	336	5
STR	64	0	0
SI_	64	0	0	96	48	5
STR	64	48	7
SI_	64	48	7	96	48	2
TAP	64	96	0
TAP	64	144	7
TAP	64	288	0
TAP	64	288	1
TAP	65	0	6
TAP	65	0	7
TAP	65	96	0
STR	65	96	1
SI_	65	96	1	96	96	6
STR	65	192	6
SCR	65	192	6	96	192	4
TAP	66	288	0
TAP	66	336	0
TAP	67	0	7
HLD	67	48	2	96
STR	67	144	5
SUL	67	144	5	96	96	1
STR	67	240	1
SI_	67	240	1	96	96	6
STR	68	288	0
SUL	68	288	0	96	96	4
TAP	68	288	1
TAP	69	192	2
STR	69	240	3
SUL	69	240	3	96	96	6
TAP	69	288	2
TAP	69	336	3
TAP	70	96	1
TAP	70	192	4
TAP	70	192	5
TAP	70	288	2
TAP	70	288	3
TAP	71	0	2
TAP	71	0	5
STR	71	96	3
SI_	71	96	3	96	48	0
STR	71	96	4
SI_	71	96	4	96	48	7
TAP	71	144	3
TAP	71	144	4
TAP	72	0	1
TAP	72	96	0
HLD	72	192	0	96
HLD	72	192	7	96
TAP	73	0	1
HLD	73	0	7	96
TAP	73	48	1
TAP	73	192	2
HLD	73	192	7	96
TAP	73	240	2
TAP	74	0	3
HLD	74	0	7	96
HLD	74	192	4	96
HLD	74	192	7	96
TAP	75	0	3
HLD	75	0	7	96
TAP	75	48	3
TAP	75	192	2
HLD	75	192	7	96
TAP	75	240	2
TAP	76	0	1
HLD	76	0	7	96
HLD	76	192	2	96
HLD	76	192	7	96
STR	77	0	3
SCL	77	0	3	96	96	0
HLD	77	0	7	96
HLD	77	192	7	96
TAP	78	0	7
TAP	78	48	3
TAP	78	96	6
TAP	78	144	2
TAP	78	192	5
TAP	78	240	3
TAP	78	288	4
TAP	78	336	2
TAP	79	0	5
STR	79	48	3
SI_	79	48	3	96	96	0
SI_	79	48	3	96	96	6
TAP	80	144	0
STR	80	144	7
SI_	80	144	7	96	48	2
TAP	80	240	1
TAP	80	288	1
STR	81	0	0
SI_	81	0	0	96	48	5
TAP	81	96	7
STR	81	192	6
SI_	81	192	6	96	48	3
TAP	81	288	0
TAP	81	336	0
TAP	82	48	1
TAP	82	48	6
STR	82	144	1
SI_	82	144	1	96	48	4
TAP	82	240	7
TAP	82	288	7
TAP	83	0	6
TAP	83	96	3
TAP	83	96	4
TAP	83	192	0
TAP	83	192	7
STR	83	240	0
SI_	83	240	0	96	48	4
STR	83	240	7
SI_	83	240	7	96	48	3
BRK	83	336	0
BRK	83	336	7
STR	84	144	1
SUR	84	144	1	96	48	5
TAP	84	240	7
TAP	84	288	7
STR	85	0	6
SUL	85	0	6	96	48	2
TAP	85	96	0
STR	85	192	1
SUR	85	192	1	96	48	5
TAP	85	288	6
TAP	85	336	6
TAP	86	48	1
TAP	86	48	7
HLD	86	144	5	96
HLD	86	240	3	48
HLD	86	288	4	48
HLD	86	336	2	48
HLD	87	0	3	48
STR	87	48	1
SI_	87	48	1	96	48	4
STR	87	144	0
SI_	87	144	0	96	48	5
STR	87	240	2
SI_	87	240	2	96	48	7
STR	87	336	3
SI_	87	336	3	96	48	6
STR	88	144	0
SUR	88	144	0	96	48	5
TAP	88	240	6
TAP	88	288	6
STR	89	0	7
SUL	89	0	7	96	48	2
TAP	89	96	1
STR	89	192	0
SUR	89	192	0	96	48	5
TAP	89	288	6
TAP	89	336	6
TAP	90	48	0
TAP	90	48	7
STR	90	144	7
SUL	90	144	7	96	48	2
TAP	90	240	1
TAP	90	288	1
TAP	91	0	0
TAP	91	96	3
TAP	91	96	4
TAP	91	192	0
TAP	91	192	7
STR	91	240	0
SI_	91	240	0	96	48	4
STR	91	240	7
SI_	91	240	7	96	48	3
BRK	91	336	0
BRK	91	336	7
STR	92	144	5
SUR	92	144	5	96	48	1
TAP	92	240	3
TAP	92	288	3
STR	93	0	2
SUL	93	0	2	96	48	6
TAP	93	96	4
STR	93	192	5
SUR	93	192	5	96	48	1
TAP	93	288	3
TAP	93	336	3
TAP	94	48	0
TAP	94	48	7
TAP	94	144	1
TAP	94	144	6
STR	94	288	0
SCL	94	288	0	96	96	4
STR	95	0	4
SCL	95	0	4	96	96	0
STR	95	96	0
SCL	95	96	0	96	96	4
STR	95	192	4
SCL	95	192	4	96	96	0
STR	95	288	0
SCL	95	288	0	96	96	4
STR	96	0	4
SCL	96	0	4	96	96	0
STR	96	96	0
SCL	96	96	0	96	96	4
STR	96	192	4
SCL	96	192	4	96	96	0
STR	96	288	0
SCL	96	288	0	96	96	4
STR	97	0	4
SCL	97	0	4	96	96	0
STR	97	96	0
SF_	97	96	0	96	96	4
BRK	98	0	7
BRK	98	96	1
BRK	98	96	5
BST	98	192	0
SCR	98	192	0	96	192	4
BST	98	192	4
SCR	98	192	4	96	192	0
TAP	99	288	2
STR	100	0	2
SCL	100	0	2	96	48	7
STR	100	0	3
SCR	100	0	3	96	48	6
TAP	100	96	2
TAP	100	96	3
TAP	100	240	4
TAP	100	288	4
STR	101	0	2
SI_	101	0	2	96	48	7
TAP	101	96	3
STR	101	192	5
SI_	101	192	5	96	48	0
TAP	101	288	4
BRK	102	0	3
BRK	102	96	2
BRK	102	96	6
BRK	102	192	1
BRK	102	192	5
BRK	102	336	7
TAP	103	96	4
STR	103	192	5
SI_	103	192	5	96	48	0
TAP	103	288	3
STR	104	0	2
SI_	104	0	2	96	48	7
TAP	104	96	4
STR	104	192	5
SI_	104	192	5	96	48	0
TAP	104	288	3
STR	105	0	2
SI_	105	0	2	96	48	7
TAP	105	96	4
STR	105	192	5
SI_	105	192	5	96	48	0
TAP	105	288	3
BRK	106	0	3
BRK	106	96	3
BRK	106	96	4
BST	106	192	3
SUL	106	192	3	96	192	4
BST	106	192	4
SUR	106	192	4	96	192	3
TAP	107	288	5
STR	108	0	4
SCL	108	0	4	96	48	1
STR	108	0	5
SCR	108	0	5	96	48	0
TAP	108	96	4
TAP	108	96	5
TAP	108	240	3
TAP	108	288	3
STR	109	0	2
SUL	109	0	2	96	48	6
TAP	109	0	3
TAP	109	96	4
TAP	109	192	4
STR	109	192	5
SUR	109	192	5	96	48	1
TAP	109	288	3
BRK	110	0	2
BRK	110	96	0
BRK	110	96	7
BRK	110	192	1
BRK	110	192	6
BRK	110	336	2
BRK	110	336	5
TAP	111	192	2
TAP	111	240	2
TAP	111	288	5
TAP	111	336	5
TAP	112	0	3
TAP	112	48	3
TAP	112	96	4
TAP	112	144	4
TAP	112	192	1
TAP	112	240	0
TAP	112	288	2
TAP	112	336	6
TAP	113	0	7
TAP	113	48	5
TAP	113	96	2
TAP	113	144	3
TAP	113	192	1
TAP	113	240	5
TAP	113	288	4
TAP	113	336	6
TAP	114	0	0
TAP	114	48	6
TAP	114	96	1
TAP	114	144	7
TAP	114	192	2
TAP	114	240	0
TAP	114	288	2
TAP	114	336	5
TAP	115	0	7
TAP	115	48	5
TAP	115	96	2
TAP	115	144	0
TAP	115	192	2
TAP	115	240	5
TAP	115	288	7
TAP	115	336	5
TAP	116	0	0
TAP	116	48	7
BRK	116	96	0
BRK	116	96	1
BRK	116	144	6
BRK	116	144	7
STR	119	144	0
SUR	119	144	0	96	1872	2
TAP	120	336	7
TAP	121	144	6
TAP	121	360	5
TAP	122	168	4

T_REC_TAP	277
T_REC_BRK	79
T_REC_XTP	0
T_REC_HLD	37
T_REC_XHO	0
T_REC_STR	100
T_REC_BST	15
T_REC_XST	0
T_REC_TTP	0
T_REC_THO	0
T_REC_SLD	117
T_REC_ALL	625
T_NUM_TAP	377
T_NUM_BRK	94
T_NUM_HLD	37
T_NUM_SLD	117
T_NUM_ALL	625
T_JUDGE_TAP	471
T_JUDGE_HLD	57
T_JUDGE_SLD	117
T_JUDGE_ALL	645
TTM_EACHPAIRS	87
TTM_SCR_TAP	188500
TTM_SCR_BRK	244400
TTM_SCR_HLD	37000
TTM_SCR_SLD	175500
TTM_SCR_ALL	645400
TTM_SCR_S	616950
TTM_SCR_SS	636000
TTM_RAT_ACV	10147

