VERSION	0.00.00	1.03.00
FES_MODE	0
BPM_DEF	240.000	240.000	240.000	240.000
MET_DEF	4	4
RESOLUTION	384
CLK_DEF	384
COMPATIBLE_CODE	MA2

BPM	0	0	240.000
MET	0	0	4	4
MET	34	0	4	2
MET	34	192	4	4

HLD	2	0	3	528
HLD	2	336	4	192
STR	3	336	3
SXR	3	336	3	96	1104	0
STR	3	336	4
SXL	3	336	4	96	1104	7
TAP	7	192	0
TAP	7	288	0
HLD	8	0	0	144
STR	8	144	7
SCL	8	144	7	96	912	0
TAP	11	192	0
TAP	11	288	0
HLD	12	0	0	384
HLD	12	144	4	240
TAP	13	96	0
TAP	13	96	4
TAP	13	192	1
TAP	13	192	5
TAP	13	288	2
TAP	13	288	6
HLD	14	0	3	96
TAP	14	0	7
TAP	14	96	5
TAP	14	192	1
HLD	14	192	4	96
TAP	14	288	2
HLD	15	0	3	96
TAP	15	0	6
TAP	15	96	5
TAP	15	192	0
TAP	15	192	4
TAP	15	288	0
TAP	15	288	4
TAP	16	0	0
TAP	16	0	4
STR	16	144	0
SV_	16	144	0	96	336	2
STR	16	144	4
SV_	16	144	4	96	336	6
STR	18	0	3
SV_	18	0	3	96	288	1
STR	18	0	7
SV_	18	0	7	96	288	5
TAP	19	192	7
TAP	19	288	7
HLD	20	0	7	384
HLD	20	144	3	240
TAP	21	96	3
TAP	21	96	7
TAP	21	192	2
TAP	21	192	6
TAP	21	288	1
TAP	21	288	5
TAP	22	0	0
HLD	22	0	4	96
TAP	22	96	2
HLD	22	192	3	96
TAP	22	192	6
TAP	22	288	5
TAP	23	0	1
HLD	23	0	4	96
TAP	23	96	2
TAP	23	192	3
TAP	23	192	7
TAP	23	288	3
TAP	23	288	7
TAP	24	0	3
TAP	24	0	7
STR	24	144	3
SV_	24	144	3	96	336	1
STR	24	144	7
SV_	24	144	7	96	336	5
STR	26	0	0
SV_	26	0	0	96	288	2
STR	26	0	4
SV_	26	0	4	96	288	6
TAP	27	192	0
TAP	27	192	7
TAP	28	0	0
TAP	28	96	0
TAP	28	192	1
TAP	28	288	1
TAP	29	0	2
TAP	29	96	2
TAP	29	192	1
TAP	29	192	3
TAP	30	0	4
TAP	30	96	4
TAP	30	192	5
TAP	30	288	5
HLD	31	0	6	144
TAP	31	144	7
TAP	32	0	7
TAP	32	96	7
TAP	32	192	6
TAP	32	288	6
TAP	33	0	5
TAP	33	96	5
TAP	33	192	4
TAP	33	192	6
TAP	34	0	2
TAP	34	0	4
TAP	34	192	2
TAP	34	192	6
TAP	35	0	0
TAP	35	0	6
BRK	35	192	7
TAP	36	0	0
TAP	36	96	0
HLD	36	192	0	384
HLD	36	336	4	240
TAP	37	288	0
TAP	37	288	4
TAP	38	0	1
TAP	38	0	5
TAP	38	96	2
TAP	38	96	6
TAP	38	192	3
HLD	38	192	7	96
TAP	38	288	1
HLD	39	0	0	96
TAP	39	0	5
TAP	39	96	6
TAP	39	192	2
HLD	39	192	7	96
TAP	39	288	1
TAP	40	0	0
TAP	40	0	4
TAP	40	96	0
TAP	40	96	4
TAP	40	192	0
TAP	40	192	4
STR	40	336	0
SXL	40	336	0	96	336	2
STR	40	336	4
SXL	40	336	4	96	336	6
STR	42	192	3
SXR	42	192	3	96	288	1
STR	42	192	7
SXR	42	192	7	96	288	5
TAP	44	0	7
TAP	44	96	7
HLD	44	192	7	384
HLD	44	336	3	240
TAP	45	288	3
TAP	45	288	7
TAP	46	0	2
TAP	46	0	6
TAP	46	96	1
TAP	46	96	5
HLD	46	192	0	96
TAP	46	192	4
TAP	46	288	6
TAP	47	0	2
HLD	47	0	7	96
TAP	47	96	1
HLD	47	192	0	96
TAP	47	192	5
TAP	47	288	6
TAP	48	0	3
TAP	48	0	7
TAP	48	96	3
TAP	48	96	7
TAP	48	192	3
TAP	48	192	7
STR	48	336	3
SXR	48	336	3	96	336	1
STR	48	336	7
SXR	48	336	7	96	336	5
STR	50	192	0
SXL	50	192	0	96	288	2
STR	50	192	4
SXL	50	192	4	96	288	6
TAP	52	0	0
TAP	52	0	7
TAP	52	192	7
TAP	52	288	7
TAP	53	0	6
TAP	53	96	6
TAP	53	192	5
TAP	53	288	5
TAP	54	0	4
TAP	54	0	6
TAP	54	192	3
TAP	54	288	3
TAP	55	0	2
TAP	55	96	2
HLD	55	192	1	144
TAP	55	336	0
TAP	56	192	0
TAP	56	288	0
TAP	57	0	1
TAP	57	96	1
TAP	57	192	2
TAP	57	288	2
TAP	58	0	1
TAP	58	0	3
TAP	58	192	3
TAP	58	192	5
TAP	59	0	1
TAP	59	0	5
TAP	59	192	1
TAP	59	192	7
TAP	60	0	0
TAP	60	96	0
HLD	60	192	0	144
STR	60	336	7
SXL	60	336	7	96	384	2
SXR	60	336	7	96	384	4
HLD	62	192	0	144
HLD	62	336	7	144
HLD	63	96	1	144
HLD	63	240	5	144
HLD	64	0	3	144
BRK	64	144	4
TAP	65	0	4
TAP	65	192	4
HLD	66	0	3	96
HLD	66	0	6	96
TAP	66	144	3
TAP	66	144	6
TAP	67	0	5
TAP	67	192	5
HLD	68	0	1	96
HLD	68	0	4	96
TAP	68	144	1
TAP	68	144	4
TAP	69	0	2
TAP	69	192	2
HLD	70	0	3	96
HLD	70	0	7	96
TAP	70	144	3
TAP	70	144	7
TAP	71	0	7
TAP	71	192	7
TAP	72	0	0
TAP	72	0	7
TAP	72	96	0
TAP	72	96	7
TAP	72	192	1
TAP	72	192	6
TAP	73	0	0
TAP	73	0	6
TAP	73	96	7
TAP	73	192	0
TAP	73	192	6
TAP	74	0	1
TAP	74	0	7
TAP	74	96	0
TAP	74	192	1
TAP	74	192	7
TAP	75	0	0
TAP	75	0	5
TAP	75	96	6
TAP	75	96	7
TAP	75	192	0
TAP	75	192	5
TAP	76	0	2
TAP	76	0	7
TAP	76	96	0
TAP	76	96	1
TAP	76	192	2
TAP	76	192	7
TAP	77	0	1
TAP	77	0	4
TAP	77	96	2
TAP	77	192	3
TAP	77	192	6
TAP	77	288	5
TAP	78	0	1
TAP	78	0	4
TAP	78	96	2
TAP	78	192	3
TAP	78	192	4
TAP	78	288	3
TAP	78	288	4
TAP	79	0	3
TAP	79	48	4
HLD	79	144	3	144
HLD	79	144	4	144
BRK	80	0	2
BRK	80	0	5
TAP	80	192	2
TAP	80	288	2
TAP	81	0	2
TAP	81	0	3
TAP	81	96	2
TAP	81	96	3
TAP	81	192	5
TAP	81	288	5
TAP	82	0	4
TAP	82	0	5
TAP	82	96	4
TAP	82	96	5
TAP	82	192	2
TAP	82	288	2
TAP	83	0	2
TAP	83	0	4
TAP	83	96	2
TAP	83	96	4
TAP	83	192	5
TAP	83	288	5
TAP	84	0	3
TAP	84	0	5
TAP	84	96	3
TAP	84	96	5
TAP	84	192	2
TAP	84	288	2
TAP	84	288	3
TAP	85	0	2
TAP	85	96	2
TAP	85	96	3
TAP	85	192	5
TAP	85	288	4
TAP	85	288	5
TAP	86	0	5
TAP	86	96	4
TAP	86	96	5
TAP	86	192	3
TAP	86	192	4
TAP	86	288	3
TAP	86	288	4
TAP	87	0	3
TAP	87	48	4
TAP	87	144	3
TAP	87	144	4
TAP	87	240	3
TAP	87	240	4
TAP	87	336	2
TAP	87	336	5
TAP	88	192	6
TAP	88	288	6
TAP	89	0	6
TAP	89	0	7
TAP	89	96	6
TAP	89	96	7
TAP	89	192	1
TAP	89	288	1
TAP	90	0	0
TAP	90	0	1
TAP	90	96	0
TAP	90	96	1
TAP	90	192	6
TAP	90	288	6
TAP	91	0	0
TAP	91	0	6
TAP	91	96	0
TAP	91	96	6
TAP	91	192	1
TAP	91	288	1
TAP	92	0	1
TAP	92	0	7
TAP	92	96	1
TAP	92	96	7
TAP	92	192	6
TAP	92	288	6
TAP	92	288	7
TAP	93	0	6
TAP	93	96	6
TAP	93	96	7
TAP	93	192	1
TAP	93	288	0
TAP	93	288	1
TAP	94	0	1
TAP	94	96	0
TAP	94	96	1
TAP	94	192	0
TAP	94	192	1
TAP	94	288	0
TAP	94	288	1
TAP	95	0	1
TAP	95	48	0
TAP	95	144	0
HLD	95	144	1	240
TAP	96	0	7
TAP	96	192	6
TAP	96	192	7
TAP	96	288	6
TAP	96	288	7
TAP	97	0	6
TAP	97	48	7
HLD	97	144	6	240
TAP	97	144	7
TAP	98	0	0
TAP	98	96	0
HLD	98	192	0	384
HLD	98	336	4	240
TAP	99	288	0
TAP	99	288	4
TAP	100	0	1
TAP	100	0	5
TAP	100	96	2
TAP	100	96	6
TAP	100	192	3
TAP	100	192	7
TAP	100	288	5
TAP	101	0	0
TAP	101	0	4
TAP	101	96	2
TAP	101	192	3
TAP	101	192	7
TAP	101	288	5
TAP	102	0	1
TAP	102	0	5
TAP	102	96	1
TAP	102	96	5
TAP	102	192	1
TAP	102	192	5
STR	102	336	1
SXL	102	336	1	96	336	0
STR	102	336	5
SXL	102	336	5	96	336	4
STR	104	192	2
SXR	104	192	2	96	336	3
STR	104	192	6
SXR	104	192	6	96	336	7
TAP	106	0	3
TAP	106	0	7
TAP	106	96	3
TAP	106	96	7
TAP	106	192	3
HLD	106	192	7	384
HLD	106	336	3	240
TAP	107	288	3
TAP	107	288	7
TAP	108	0	2
TAP	108	0	6
TAP	108	96	1
TAP	108	96	5
TAP	108	192	0
TAP	108	192	4
TAP	108	288	2
TAP	108	288	3
TAP	109	0	3
TAP	109	0	7
TAP	109	96	4
TAP	109	96	5
TAP	109	192	0
TAP	109	192	4
TAP	109	288	2
TAP	109	288	3
TAP	110	0	3
TAP	110	0	7
TAP	110	96	3
TAP	110	96	7
TAP	110	192	3
TAP	110	192	7
STR	110	336	3
SXR	110	336	3	96	384	0
STR	110	336	7
SXR	110	336	7	96	384	4
TAP	112	192	0
TAP	112	192	1
TAP	112	336	6
TAP	112	336	7
TAP	113	96	0
TAP	113	96	2
TAP	113	240	5
TAP	113	240	7
TAP	114	0	1
TAP	114	0	2
TAP	114	144	5
TAP	114	144	6
TAP	114	288	1
TAP	114	288	3
TAP	115	48	4
TAP	115	48	6
TAP	115	192	2
TAP	115	192	3
TAP	115	336	4
TAP	115	336	5
STR	116	96	3
SXR	116	96	3	96	912	0
STR	116	96	4
SXL	116	96	4	96	912	7
BST	119	144	1
SCR	119	144	1	96	1872	7
BST	119	144	6
SCL	119	144	6	96	1872	0

T_REC_TAP	370
T_REC_BRK	4
T_REC_XTP	0
T_REC_HLD	45
T_REC_XHO	0
T_REC_STR	28
T_REC_BST	2
T_REC_XST	0
T_REC_TTP	0
T_REC_THO	0
T_REC_SLD	31
T_REC_ALL	480
T_NUM_TAP	398
T_NUM_BRK	6
T_NUM_HLD	45
T_NUM_SLD	31
T_NUM_ALL	480
T_JUDGE_TAP	404
T_JUDGE_HLD	96
T_JUDGE_SLD	31
T_JUDGE_ALL	531
TTM_EACHPAIRS	157
TTM_SCR_TAP	199000
TTM_SCR_BRK	15600
TTM_SCR_HLD	45000
TTM_SCR_SLD	46500
TTM_SCR_ALL	306100
TTM_SCR_S	296350
TTM_SCR_SS	305500
TTM_RAT_ACV	10019

