VERSION	0.00.00	1.03.00
FES_MODE	0
BPM_DEF	240.000	240.000	240.000	240.000
MET_DEF	4	4
RESOLUTION	384
CLK_DEF	384
COMPATIBLE_CODE	MA2

BPM	0	0	240.000
MET	0	0	4	4
MET	34	0	4	2
MET	34	192	4	4

TAP	7	192	0
TAP	7	192	7
BST	8	0	0
SXL	8	0	0	96	1056	3
BST	8	0	7
SXR	8	0	7	96	1056	4
TAP	11	192	2
TAP	11	192	5
TAP	12	0	2
TAP	12	96	2
TAP	12	192	2
TAP	13	0	3
TAP	13	96	3
TAP	13	192	4
TAP	14	0	5
TAP	14	96	5
TAP	14	192	5
TAP	15	0	4
TAP	15	96	4
TAP	15	192	3
STR	15	288	3
SXL	15	288	3	96	576	0
HLD	18	0	0	192
HLD	18	0	7	192
BRK	19	0	1
BRK	19	0	6
TAP	19	192	2
TAP	19	192	5
TAP	20	0	0
TAP	20	96	0
TAP	20	192	1
TAP	21	0	2
TAP	21	96	2
TAP	21	192	3
TAP	22	0	4
TAP	22	96	4
TAP	22	192	5
TAP	23	0	6
TAP	23	96	6
TAP	23	192	7
STR	23	288	7
SCL	23	288	7	96	576	0
HLD	26	0	0	192
HLD	26	0	7	192
BRK	27	0	1
BRK	27	0	6
HLD	28	0	5	192
TAP	28	192	4
TAP	29	0	5
TAP	29	192	3
TAP	29	192	4
HLD	30	0	3	192
HLD	30	0	4	192
TAP	31	0	2
TAP	31	0	5
HLD	32	0	1	192
TAP	32	192	0
TAP	33	0	1
TAP	33	192	0
TAP	33	192	7
TAP	34	0	0
TAP	34	0	7
TAP	34	192	1
TAP	34	192	6
TAP	35	0	2
TAP	35	0	5
TAP	35	192	3
TAP	35	192	4
BRK	36	0	1
BRK	36	0	6
TAP	36	192	5
TAP	36	288	5
TAP	37	0	4
TAP	37	0	5
TAP	37	192	2
TAP	37	288	2
TAP	38	0	2
TAP	38	0	3
TAP	38	192	4
TAP	38	288	4
TAP	39	0	3
TAP	39	0	4
TAP	39	192	3
TAP	39	288	4
TAP	40	0	2
TAP	40	0	5
STR	40	96	2
SLL	40	96	2	96	624	3
STR	40	96	5
SLR	40	96	5	96	624	4
HLD	42	192	2	192
HLD	42	192	5	192
BRK	43	192	0
BRK	43	192	7
TAP	44	0	1
TAP	44	0	6
TAP	44	192	1
TAP	44	288	1
TAP	45	0	0
TAP	45	0	1
TAP	45	192	6
TAP	45	288	6
TAP	46	0	6
TAP	46	0	7
TAP	46	192	0
TAP	46	288	0
TAP	47	0	0
TAP	47	0	7
TAP	47	192	7
TAP	47	288	0
TAP	48	0	1
TAP	48	0	6
STR	48	96	1
SLR	48	96	1	96	576	0
STR	48	96	6
SLL	48	96	6	96	576	7
HLD	50	192	0	192
HLD	50	192	7	192
BRK	51	192	2
BRK	51	192	5
HLD	52	192	2	192
TAP	53	0	3
TAP	53	192	4
TAP	53	288	5
TAP	54	0	3
TAP	54	0	6
HLD	54	192	5	192
TAP	55	0	4
TAP	55	192	3
TAP	55	288	2
TAP	56	0	1
TAP	56	0	4
HLD	56	192	2	192
HLD	56	192	3	192
HLD	57	192	4	192
HLD	57	192	5	192
TAP	58	192	2
TAP	58	288	2
TAP	59	0	3
TAP	59	192	4
TAP	59	288	4
TAP	60	0	3
STR	60	96	3
SXL	60	96	3	96	624	0
HLD	62	192	7	384
HLD	63	192	0	384
TAP	64	192	7
TAP	65	0	6
TAP	65	192	6
TAP	65	192	7
TAP	66	0	0
TAP	66	0	5
TAP	66	192	1
TAP	67	0	0
TAP	67	192	2
TAP	67	192	7
TAP	68	192	4
TAP	69	0	5
TAP	69	192	4
TAP	69	192	5
TAP	70	0	3
TAP	70	0	6
TAP	70	192	2
TAP	71	0	2
TAP	71	0	3
TAP	71	192	5
TAP	72	0	4
TAP	72	0	5
HLD	72	192	2	192
HLD	72	192	3	192
HLD	73	192	0	192
HLD	73	192	1	192
HLD	74	192	6	192
HLD	74	192	7	192
HLD	75	192	4	192
HLD	75	192	5	192
TAP	76	192	2
TAP	76	192	3
TAP	77	0	2
TAP	77	0	3
TAP	77	192	1
TAP	77	192	4
TAP	78	192	4
TAP	78	192	5
TAP	79	0	4
TAP	79	0	5
TAP	79	192	3
TAP	79	192	6
TAP	80	0	1
TAP	80	0	4
HLD	80	192	2	192
TAP	81	0	3
HLD	81	192	5	192
TAP	82	0	4
HLD	82	192	2	192
TAP	83	0	3
TAP	83	192	4
TAP	83	192	5
TAP	84	0	3
TAP	84	0	6
HLD	84	192	1	192
TAP	85	0	0
HLD	85	192	6	192
TAP	86	0	7
HLD	86	192	1	192
TAP	87	0	0
TAP	87	192	0
TAP	87	192	7
TAP	87	288	0
TAP	87	288	7
TAP	88	0	1
TAP	88	0	6
HLD	88	192	2	192
TAP	89	0	3
HLD	89	192	5	192
TAP	90	0	4
HLD	90	192	1	192
TAP	91	0	3
HLD	91	192	6	192
TAP	92	0	4
HLD	92	192	1	192
TAP	93	0	0
HLD	93	192	6	192
TAP	94	0	7
TAP	94	192	4
TAP	94	192	5
TAP	95	0	3
TAP	95	0	6
TAP	95	192	2
TAP	95	192	3
TAP	96	0	1
TAP	96	0	4
TAP	96	192	2
TAP	96	192	3
TAP	97	0	4
TAP	97	0	5
TAP	97	192	3
TAP	97	192	4
BRK	98	0	1
BRK	98	0	6
TAP	98	192	2
TAP	98	288	2
TAP	99	0	1
TAP	99	0	3
TAP	99	192	5
TAP	99	288	5
TAP	100	0	4
TAP	100	0	6
TAP	100	192	2
TAP	100	288	2
TAP	101	0	1
TAP	101	0	3
TAP	101	192	4
TAP	101	288	4
TAP	102	0	3
TAP	102	0	4
STR	102	96	3
SXL	102	96	3	96	576	0
TAP	102	96	4
HLD	104	192	0	192
HLD	104	192	7	192
BRK	105	192	1
BRK	105	192	6
TAP	106	0	2
TAP	106	0	5
TAP	106	192	6
TAP	106	288	6
TAP	107	0	5
TAP	107	0	7
TAP	107	192	1
TAP	107	288	1
TAP	108	0	0
TAP	108	0	2
TAP	108	192	6
TAP	108	288	6
TAP	109	0	5
TAP	109	0	7
TAP	109	192	0
TAP	109	288	0
TAP	110	0	0
TAP	110	0	7
TAP	110	96	0
TAP	110	96	7
BRK	110	192	1
BRK	110	192	6
TAP	112	192	3
TAP	112	192	4
TAP	112	288	3
TAP	112	288	4
TAP	113	0	2
TAP	113	0	5
TAP	113	192	2
TAP	113	192	5
TAP	113	288	2
TAP	113	288	5
TAP	114	0	1
TAP	114	0	6
TAP	114	192	1
TAP	114	192	6
TAP	114	288	1
TAP	114	288	6
TAP	115	0	0
TAP	115	0	7
TAP	115	192	0
TAP	115	192	7
TAP	115	288	0
TAP	115	288	7
TAP	116	0	0
TAP	116	0	7
HLD	116	96	0	1200
HLD	116	96	7	1200

T_REC_TAP	231
T_REC_BRK	16
T_REC_XTP	0
T_REC_HLD	44
T_REC_XHO	0
T_REC_STR	8
T_REC_BST	2
T_REC_XST	0
T_REC_TTP	0
T_REC_THO	0
T_REC_SLD	10
T_REC_ALL	311
T_NUM_TAP	239
T_NUM_BRK	18
T_NUM_HLD	44
T_NUM_SLD	10
T_NUM_ALL	311
T_JUDGE_TAP	257
T_JUDGE_HLD	114
T_JUDGE_SLD	10
T_JUDGE_ALL	381
TTM_EACHPAIRS	94
TTM_SCR_TAP	119500
TTM_SCR_BRK	46800
TTM_SCR_HLD	44000
TTM_SCR_SLD	15000
TTM_SCR_ALL	225300
TTM_SCR_S	216800
TTM_SCR_SS	223500
TTM_RAT_ACV	10080

