VERSION	0.00.00	1.03.00
FES_MODE	0
BPM_DEF	240.000	240.000	240.000	240.000
MET_DEF	4	4
RESOLUTION	384
CLK_DEF	384
COMPATIBLE_CODE	MA2

BPM	0	0	240.000
MET	0	0	4	4
MET	34	0	4	2
MET	34	192	4	4

TAP	8	0	0
TAP	8	192	0
TAP	9	0	0
TAP	10	0	7
TAP	10	192	7
TAP	11	0	7
TAP	12	0	0
TAP	12	192	0
TAP	13	0	0
TAP	14	0	1
TAP	14	192	1
TAP	15	0	1
TAP	16	0	2
TAP	16	192	2
TAP	17	0	2
TAP	18	0	3
TAP	18	192	3
TAP	19	0	3
TAP	19	0	4
TAP	20	0	4
TAP	20	192	4
TAP	21	0	4
TAP	22	0	5
TAP	22	192	5
TAP	23	0	5
TAP	24	0	6
TAP	24	192	6
TAP	25	0	6
TAP	26	0	7
TAP	26	192	7
TAP	27	0	0
TAP	27	0	7
HLD	28	0	0	384
HLD	30	0	7	384
HLD	32	0	0	384
HLD	34	0	7	384
TAP	36	192	0
TAP	37	0	0
TAP	37	192	0
TAP	38	192	7
TAP	39	0	7
TAP	39	192	0
TAP	39	192	7
TAP	40	192	6
TAP	41	0	6
TAP	41	192	6
TAP	42	192	5
TAP	43	0	5
TAP	43	192	4
TAP	43	192	5
TAP	44	192	3
TAP	45	0	3
TAP	45	192	3
TAP	46	192	2
TAP	47	0	2
TAP	47	192	2
TAP	47	192	3
TAP	48	192	1
TAP	49	0	1
TAP	49	192	1
TAP	50	192	0
TAP	51	0	0
TAP	51	192	0
TAP	51	192	7
HLD	52	192	1	384
HLD	54	192	2	384
HLD	56	192	3	384
TAP	58	192	3
TAP	58	192	4
TAP	59	0	3
TAP	59	0	4
TAP	59	192	3
TAP	59	192	4
STR	60	192	4
SI_	60	192	4	96	672	7
STR	64	192	0
SI_	64	192	0	96	672	3
STR	68	192	7
SI_	68	192	7	96	672	4
STR	72	192	0
SI_	72	192	0	96	672	5
STR	76	192	7
SI_	76	192	7	96	672	2
TAP	80	192	0
TAP	81	0	0
TAP	81	192	0
TAP	82	192	0
TAP	82	192	1
TAP	83	0	0
TAP	83	0	1
TAP	83	192	0
TAP	83	192	1
TAP	84	192	2
TAP	85	0	2
TAP	85	192	2
TAP	86	192	2
TAP	86	192	3
TAP	87	0	2
TAP	87	0	3
TAP	87	192	2
TAP	87	192	3
TAP	88	192	4
TAP	89	0	4
TAP	89	192	4
TAP	90	192	4
TAP	90	192	5
TAP	91	0	4
TAP	91	0	5
TAP	91	192	4
TAP	91	192	5
TAP	92	192	6
TAP	93	0	6
TAP	93	192	6
TAP	94	192	6
TAP	94	192	7
TAP	95	0	6
TAP	95	0	7
TAP	95	192	6
TAP	95	192	7
TAP	96	192	0
TAP	96	192	1
TAP	97	0	0
TAP	97	0	1
TAP	97	192	0
TAP	97	192	1
TAP	98	192	7
TAP	99	0	7
TAP	99	192	6
TAP	100	0	6
TAP	100	192	5
TAP	101	0	5
TAP	101	192	4
TAP	101	192	5
TAP	102	192	3
TAP	103	0	3
TAP	103	192	2
TAP	104	0	2
TAP	104	192	1
TAP	105	0	1
TAP	105	192	0
TAP	105	192	1
TAP	106	192	0
TAP	107	0	0
TAP	107	192	1
TAP	108	0	1
TAP	108	192	2
TAP	109	0	2
TAP	109	192	2
TAP	109	192	3
TAP	110	192	3
TAP	110	192	4
TAP	111	0	3
TAP	111	0	4
BRK	111	192	3
BRK	111	192	4
HLD	112	192	3	2688
HLD	112	192	4	2688

T_REC_TAP	136
T_REC_BRK	2
T_REC_XTP	0
T_REC_HLD	9
T_REC_XHO	0
T_REC_STR	5
T_REC_BST	0
T_REC_XST	0
T_REC_TTP	0
T_REC_THO	0
T_REC_SLD	5
T_REC_ALL	157
T_NUM_TAP	141
T_NUM_BRK	2
T_NUM_HLD	9
T_NUM_SLD	5
T_NUM_ALL	157
T_JUDGE_TAP	143
T_JUDGE_HLD	84
T_JUDGE_SLD	5
T_JUDGE_ALL	232
TTM_EACHPAIRS	31
TTM_SCR_TAP	70500
TTM_SCR_BRK	5200
TTM_SCR_HLD	9000
TTM_SCR_SLD	7500
TTM_SCR_ALL	92200
TTM_SCR_S	89250
TTM_SCR_SS	92000
TTM_RAT_ACV	10021

