VERSION	0.00.00	1.03.00
FES_MODE	0
BPM_DEF	189.000	252.000	252.000	126.000
MET_DEF	4	4
RESOLUTION	384
CLK_DEF	672
COMPATIBLE_CODE	MA2

BPM	0	0	189.000
BPM	43	0	126.000
BPM	49	168	252.000
BPM	127	192	240.000
BPM	128	0	228.000
BPM	128	96	216.000
BPM	128	192	204.000
BPM	128	288	189.000
MET	0	0	4	7
MET	10	192	4	3
MET	11	96	8	9
MET	13	192	4	6
MET	15	0	4	7
MET	32	192	4	6
MET	43	0	4	4
MET	44	0	16	11
MET	48	312	8	5
MET	49	168	4	5
MET	51	360	4	6
MET	54	360	16	17
MET	56	0	4	5
MET	58	192	4	6
MET	61	192	4	5
MET	62	288	4	6
MET	67	96	4	5
MET	69	288	4	6
MET	72	288	4	5
MET	74	0	4	6
MET	78	192	4	4
MET	80	192	4	5
MET	81	288	4	6
MET	84	288	4	5
MET	89	288	4	6
MET	92	288	4	5
MET	94	0	4	6
MET	95	192	4	5
MET	96	288	4	6
MET	101	96	4	7
MET	103	0	4	6
MET	104	192	4	5
MET	107	0	4	6
MET	110	0	4	5
MET	111	96	4	6
MET	114	96	4	7
MET	116	0	4	4
MET	120	0	4	5
MET	121	96	4	6
MET	122	288	4	7
MET	124	192	4	8
MET	126	192	4	9
MET	128	288	4	10

TAP	1	288	2
TAP	1	336	3
TAP	2	0	1
TAP	2	48	4
TAP	2	96	3
TAP	2	144	1
TAP	2	192	2
TAP	2	240	3
TAP	2	288	1
TAP	2	336	4
TAP	3	0	3
TAP	3	48	4
BRK	3	96	2
BRK	3	96	5
STR	3	192	1
SXL	3	192	1	96	96	3
STR	3	288	0
SCL	3	288	0	96	96	4
TAP	4	48	2
TAP	4	96	1
TAP	4	144	0
TAP	4	144	3
TAP	4	240	1
TAP	4	288	1
TAP	4	336	2
TAP	5	0	3
TAP	5	0	4
STR	5	96	6
SXR	5	96	6	96	96	4
STR	5	192	7
SCR	5	192	7	96	96	3
TAP	5	336	5
TAP	6	0	6
TAP	6	48	4
TAP	6	48	7
TAP	6	144	6
TAP	6	192	6
TAP	6	240	5
TAP	6	288	3
TAP	6	288	4
STR	7	0	1
SXL	7	0	1	96	96	3
STR	7	96	0
SCL	7	96	0	96	96	4
TAP	7	240	2
TAP	7	288	1
TAP	7	336	0
TAP	7	336	3
TAP	8	48	1
TAP	8	96	1
TAP	8	144	2
TAP	8	192	3
TAP	8	192	4
TAP	8	288	6
TAP	8	336	7
TAP	9	0	6
STR	9	48	0
SI_	9	48	0	96	48	4
TAP	9	48	5
STR	9	144	6
SI_	9	144	6	96	48	2
STR	9	240	7
SXL	9	240	7	96	144	3
SXR	9	240	7	96	144	3
STR	10	192	2
SXR	10	192	2	96	96	0
STR	10	288	3
SCR	10	288	3	96	96	7
TAP	11	48	1
TAP	11	96	2
TAP	11	144	0
TAP	11	144	3
TAP	11	240	7
TAP	11	288	6
TAP	11	336	5
TAP	12	0	4
TAP	12	48	3
TAP	12	96	2
HLD	12	144	3	72
HLD	12	216	4	72
HLD	12	288	3	72
HLD	12	360	2	72
HLD	13	48	1	72
TAP	13	120	0
STR	13	192	7
SXR	13	192	7	96	192	4
TAP	13	288	3
TAP	14	0	2
STR	14	96	0
SXL	14	96	0	96	192	3
TAP	14	192	4
TAP	14	288	5
STR	15	0	7
SI_	15	0	7	96	48	2
SI_	15	0	7	96	48	4
TAP	15	96	7
TAP	15	192	0
TAP	15	192	6
STR	15	240	0
SI_	15	240	0	96	48	3
SI_	15	240	0	96	48	5
TAP	15	240	6
TAP	15	336	0
TAP	16	48	4
TAP	16	96	3
TAP	16	144	4
TAP	16	192	1
TAP	16	192	6
TAP	16	288	5
TAP	16	336	4
TAP	17	0	6
TAP	17	48	3
TAP	17	96	4
TAP	17	144	6
TAP	17	192	5
TAP	17	240	4
TAP	17	288	6
TAP	17	336	3
TAP	18	0	4
TAP	18	48	5
TAP	18	96	0
TAP	18	96	6
TAP	18	192	0
STR	18	192	1
SCR	18	192	1	96	48	4
TAP	18	288	7
TAP	18	336	7
STR	19	48	6
SI_	19	48	6	96	48	2
SI_	19	48	6	96	48	3
TAP	19	288	0
TAP	19	288	1
TAP	20	0	2
TAP	20	0	7
HLD	20	96	3	144
TAP	20	96	6
TAP	20	192	2
STR	20	240	2
SCL	20	240	2	96	144	5
TAP	20	336	3
TAP	21	48	4
TAP	21	144	7
TAP	21	192	6
TAP	21	240	7
TAP	21	288	0
TAP	21	288	5
TAP	22	0	4
STR	22	0	5
SCR	22	0	5	96	48	0
TAP	22	96	3
TAP	22	144	3
STR	22	240	1
SI_	22	240	1	96	48	6
STR	22	240	2
SI_	22	240	2	96	48	5
TAP	23	96	4
TAP	23	192	3
TAP	23	192	4
TAP	23	288	2
STR	23	288	5
SCR	23	288	5	96	144	2
TAP	24	0	3
TAP	24	48	3
TAP	24	144	4
TAP	24	240	3
TAP	24	240	4
TAP	24	336	5
TAP	25	0	4
TAP	25	48	5
TAP	25	96	3
TAP	25	96	6
STR	25	192	6
SCL	25	192	6	96	48	3
TAP	25	192	7
TAP	25	288	0
TAP	25	336	0
STR	26	48	1
SI_	26	48	1	96	48	4
SI_	26	48	1	96	48	5
TAP	26	288	6
TAP	26	288	7
TAP	27	0	0
TAP	27	0	5
HLD	27	96	1	144
TAP	27	192	0
STR	27	240	0
SCL	27	240	0	96	96	4
TAP	27	336	4
TAP	28	0	3
TAP	28	48	2
TAP	28	144	1
STR	28	192	0
SI_	28	192	0	96	48	4
TAP	28	240	1
STR	28	288	0
SCR	28	288	0	96	48	3
STR	29	0	0
SCL	29	0	0	96	48	5
TAP	29	96	0
STR	29	192	0
SLR	29	192	0	96	96	4
STR	29	192	4
SLR	29	192	4	96	96	0
STR	30	96	0
SV_	30	96	0	96	48	7
TAP	30	96	3
TAP	30	192	2
STR	30	288	1
SCR	30	288	1	96	96	5
TAP	31	0	0
TAP	31	96	7
TAP	31	192	6
TAP	31	192	7
TAP	31	240	6
TAP	31	240	7
TAP	31	336	0
TAP	31	336	5
TAP	32	48	3
TAP	32	48	4
TAP	32	96	2
TAP	32	96	5
BST	32	192	7
SUL	32	192	7	96	96	3
STR	32	288	3
SCR	32	288	3	96	96	7
TAP	33	0	1
HLD	33	96	0	96
HLD	33	192	1	96
HLD	33	288	2	96
STR	34	0	3
SUR	34	0	3	96	96	7
STR	34	96	7
SCL	34	96	7	96	96	3
TAP	34	192	1
HLD	34	288	2	96
HLD	35	0	1	96
HLD	35	96	0	96
STR	35	192	7
SCL	35	192	7	96	144	2
SUL	35	192	7	96	144	1
STR	36	96	7
SCL	36	96	7	96	144	1
SUL	36	96	7	96	144	0
STR	37	0	0
SCR	37	0	0	96	144	5
SUR	37	0	0	96	144	6
STR	37	288	0
SCR	37	288	0	96	144	6
SUR	37	288	0	96	144	7
STR	38	192	0
SI_	38	192	0	96	96	4
STR	38	288	4
SI_	38	288	4	96	48	2
SI_	38	288	4	96	48	6
STR	39	96	0
SI_	39	96	0	96	96	4
STR	39	192	4
SCL	39	192	4	96	48	2
SCR	39	192	4	96	48	6
STR	40	0	7
SI_	40	0	7	96	96	3
STR	40	96	3
SI_	40	96	3	96	48	1
SI_	40	96	3	96	48	5
STR	40	288	7
SI_	40	288	7	96	96	3
STR	41	0	3
SCL	41	0	3	96	48	1
SCR	41	0	3	96	48	5
STR	41	192	0
SXL	41	192	0	96	192	3
TAP	41	288	6
TAP	42	0	5
STR	42	96	4
SXL	42	96	4	96	192	7
TAP	42	192	1
TAP	42	288	2
BST	43	0	3
SI_	43	0	3	96	48	0
SI_	43	0	3	96	48	1
STR	43	96	3
SI_	43	96	3	96	48	5
SI_	43	96	3	96	48	6
STR	43	192	3
SF_	43	192	3	96	48	7
TAP	43	288	3
BRK	44	0	1
BRK	44	0	5
TAP	44	48	2
TAP	44	72	3
STR	44	96	0
SXL	44	96	0	96	48	2
TAP	44	144	6
TAP	44	168	0
TAP	44	192	6
TAP	44	264	0
TAP	44	264	6
TAP	44	312	3
TAP	44	336	4
STR	44	360	1
SXL	44	360	1	96	48	3
TAP	45	24	7
TAP	45	48	1
TAP	45	72	7
TAP	45	144	1
TAP	45	144	7
TAP	45	192	2
TAP	45	216	3
STR	45	240	0
SUL	45	240	0	96	48	4
TAP	45	288	6
TAP	45	312	0
TAP	45	336	6
TAP	46	24	0
TAP	46	24	6
TAP	46	72	3
TAP	46	96	4
TAP	46	120	2
TAP	46	144	5
TAP	46	168	1
TAP	46	192	6
TAP	46	216	0
TAP	46	240	7
TAP	46	264	0
BRK	46	288	1
BRK	46	288	6
TAP	46	336	5
TAP	46	360	4
STR	47	0	7
SXR	47	0	7	96	48	5
TAP	47	48	1
TAP	47	72	7
TAP	47	96	1
TAP	47	168	1
TAP	47	168	7
TAP	47	216	4
TAP	47	240	3
STR	47	264	6
SXR	47	264	6	96	48	4
TAP	47	312	0
TAP	47	336	6
TAP	47	360	0
TAP	48	48	0
TAP	48	48	6
TAP	48	96	5
TAP	48	120	4
STR	48	144	7
SUR	48	144	7	96	48	3
TAP	48	192	1
TAP	48	216	7
TAP	48	240	1
TAP	48	312	1
TAP	48	312	7
TAP	48	360	4
TAP	49	0	3
TAP	49	24	5
TAP	49	48	2
TAP	49	72	6
TAP	49	96	1
TAP	49	120	0
TAP	49	120	7
BST	49	168	1
SI_	49	168	1	96	96	4
SI_	49	168	1	96	96	6
TAP	50	72	3
TAP	50	72	5
TAP	50	180	2
TAP	50	180	4
BST	50	264	6
SI_	50	264	6	96	96	1
SI_	50	264	6	96	96	3
TAP	51	168	2
TAP	51	168	4
TAP	51	276	3
TAP	51	276	5
HLD	51	360	5	96
HLD	51	360	7	96
HLD	52	120	3	96
HLD	52	120	5	96
STR	52	264	1
SCR	52	264	1	96	96	4
STR	52	264	5
SCR	52	264	5	96	96	0
HLD	53	168	0	96
HLD	53	168	4	96
HLD	53	312	2	96
HLD	53	312	6	96
STR	54	72	0
SI_	54	72	0	96	72	3
STR	54	72	4
SI_	54	72	4	96	72	7
TAP	54	360	7
TAP	55	0	0
TAP	55	24	1
TAP	55	48	2
TAP	55	72	3
TAP	55	96	4
TAP	55	120	5
TAP	55	144	6
TAP	55	168	7
TAP	55	192	0
TAP	55	216	1
TAP	55	240	2
TAP	55	264	3
TAP	55	288	4
TAP	55	312	5
TAP	55	336	6
TAP	55	360	7
BRK	56	0	0
TAP	56	96	5
TAP	56	144	4
TAP	56	144	6
TAP	56	240	0
TAP	56	288	1
TAP	56	288	7
TAP	57	0	3
TAP	57	0	4
TAP	57	96	0
TAP	57	96	5
TAP	57	192	2
TAP	57	240	1
TAP	57	240	3
TAP	57	336	7
TAP	58	0	0
TAP	58	0	6
TAP	58	96	3
TAP	58	96	4
TAP	58	192	2
TAP	58	192	7
TAP	58	288	5
TAP	58	336	4
TAP	58	336	6
TAP	59	48	0
HLD	59	96	1	96
TAP	59	96	7
HLD	59	192	2	96
HLD	59	288	3	96
STR	60	0	4
SUL	60	0	4	96	192	3
STR	60	288	7
SUR	60	288	7	96	192	0
HLD	61	192	5	96
TAP	61	288	7
HLD	61	336	4	96
TAP	62	48	0
TAP	62	96	1
TAP	62	96	3
TAP	62	192	2
TAP	62	192	7
HLD	62	288	2	96
TAP	63	0	0
HLD	63	48	3	96
TAP	63	144	7
TAP	63	192	4
TAP	63	192	6
TAP	63	288	0
TAP	63	288	5
TAP	64	0	1
TAP	64	0	6
HLD	64	96	5	96
TAP	64	192	7
HLD	64	240	4	96
TAP	64	336	0
TAP	65	0	1
TAP	65	0	3
TAP	65	96	2
TAP	65	96	7
TAP	65	192	1
TAP	65	192	6
STR	65	288	2
SV_	65	288	2	96	96	0
STR	65	288	6
SV_	65	288	6	96	96	4
STR	66	192	1
SV_	66	192	1	96	96	3
STR	66	192	5
SV_	66	192	5	96	96	7
BRK	67	96	0
BRK	67	96	5
TAP	67	192	2
TAP	67	240	1
TAP	67	240	3
TAP	67	336	7
TAP	68	0	0
TAP	68	0	6
TAP	68	96	3
TAP	68	96	4
TAP	68	192	2
TAP	68	192	7
TAP	68	288	5
TAP	68	336	4
TAP	68	336	6
TAP	69	48	0
TAP	69	96	1
TAP	69	96	7
TAP	69	192	3
TAP	69	192	4
TAP	69	288	0
TAP	69	288	5
TAP	70	0	2
TAP	70	48	1
TAP	70	48	3
TAP	70	144	7
TAP	70	192	0
HLD	70	192	6	96
HLD	70	288	5	96
HLD	71	0	4	96
STR	71	96	3
SSR	71	96	3	96	192	7
STR	72	0	4
SSL	72	0	4	96	192	0
HLD	72	288	2	96
TAP	73	0	0
HLD	73	48	3	96
TAP	73	144	7
TAP	73	192	4
TAP	73	192	6
TAP	73	288	0
TAP	73	288	5
HLD	74	0	5	96
TAP	74	96	7
HLD	74	144	4	96
TAP	74	240	0
TAP	74	288	1
TAP	74	288	3
TAP	75	0	2
TAP	75	0	7
TAP	75	96	1
TAP	75	96	6
HLD	75	192	2	96
TAP	75	288	0
HLD	75	336	3	96
TAP	76	48	7
TAP	76	96	4
TAP	76	96	6
TAP	76	192	0
TAP	76	192	5
STR	76	288	3
SXR	76	288	3	96	192	4
STR	76	288	7
SXR	76	288	7	96	192	0
TAP	77	288	4
TAP	78	0	3
TAP	78	0	5
TAP	78	96	2
TAP	78	96	6
HLD	78	192	1	600
HLD	78	192	7	600
TAP	80	48	2
TAP	80	48	6
TAP	80	72	3
TAP	80	72	5
TAP	80	96	4
BRK	80	192	0
BRK	80	192	6
TAP	80	288	1
TAP	80	336	7
TAP	81	0	1
TAP	81	48	0
HLD	81	96	1	96
HLD	81	192	2	96
TAP	81	288	3
TAP	81	336	4
TAP	82	0	3
TAP	82	48	5
TAP	82	96	3
TAP	82	144	6
TAP	82	192	3
TAP	82	240	7
TAP	82	288	3
TAP	82	336	0
TAP	83	0	3
STR	83	96	1
SUR	83	96	1	96	144	6
STR	83	96	2
SCR	83	96	2	96	144	5
STR	84	0	0
SCR	84	0	0	96	144	3
STR	84	0	7
SUR	84	0	7	96	144	4
STR	84	288	5
SUR	84	288	5	96	144	2
STR	84	288	6
SCR	84	288	6	96	144	1
TAP	85	192	3
TAP	85	192	4
TAP	85	288	6
TAP	85	288	7
TAP	86	0	0
TAP	86	0	1
TAP	86	96	2
TAP	86	144	4
TAP	86	192	2
TAP	86	240	3
HLD	86	288	2	96
HLD	87	0	1	96
TAP	87	96	0
TAP	87	192	1
TAP	87	192	7
TAP	87	288	2
TAP	87	288	6
STR	88	0	3
SCL	88	0	3	96	96	7
TAP	88	0	5
TAP	88	240	5
TAP	88	288	4
TAP	88	336	6
TAP	89	0	4
TAP	89	48	7
TAP	89	144	2
TAP	89	192	3
TAP	89	240	1
TAP	89	336	5
TAP	90	0	4
TAP	90	48	6
TAP	90	96	4
TAP	90	144	7
TAP	90	192	4
TAP	90	240	0
TAP	90	240	4
TAP	90	336	2
TAP	90	336	6
TAP	91	48	0
TAP	91	48	7
BST	91	96	1
SCR	91	96	1	96	192	5
TAP	91	192	0
TAP	91	240	0
TAP	91	336	7
TAP	92	0	7
TAP	92	96	0
TAP	92	96	6
TAP	92	192	1
TAP	92	192	5
TAP	92	288	2
HLD	92	288	4	96
HLD	93	0	3	96
HLD	93	96	4	96
STR	93	192	3
SCL	93	192	3	96	96	7
HLD	94	0	6	192
HLD	94	192	5	96
HLD	94	288	7	96
HLD	95	0	4	96
HLD	95	96	0	96
STR	95	192	3
SXR	95	192	3	96	288	0
TAP	95	288	0
TAP	96	0	7
TAP	96	96	6
TAP	96	192	5
BRK	96	288	4
TAP	96	336	0
TAP	97	0	4
TAP	97	48	1
TAP	97	96	4
TAP	97	144	2
TAP	97	192	4
TAP	97	240	0
TAP	97	288	4
TAP	97	336	7
TAP	98	0	4
TAP	98	48	6
TAP	98	96	4
TAP	98	144	0
TAP	98	192	4
TAP	98	240	1
TAP	98	288	4
TAP	98	336	2
HLD	99	0	4	96
HLD	99	96	5	96
HLD	99	192	6	96
BRK	99	288	3
TAP	99	336	7
TAP	100	0	3
TAP	100	48	6
TAP	100	96	3
TAP	100	144	5
TAP	100	192	3
TAP	100	240	7
TAP	100	288	3
TAP	100	336	0
TAP	101	0	3
TAP	101	48	1
BRK	101	96	3
TAP	101	192	7
TAP	101	240	4
TAP	101	288	5
BRK	102	0	0
BRK	102	0	7
TAP	102	96	1
TAP	102	144	3
HLD	102	192	2	96
HLD	102	288	1	96
HLD	103	0	0	96
HLD	103	96	7	96
HLD	103	192	6	96
HLD	103	288	5	96
TAP	104	0	4
TAP	104	96	3
TAP	104	96	4
BST	104	192	0
SXR	104	192	0	96	288	3
BST	104	192	4
SCR	104	192	4	96	288	2
BST	105	288	3
SCL	105	288	3	96	288	5
BST	105	288	7
SXL	105	288	7	96	288	4
TAP	107	0	2
TAP	107	0	7
TAP	107	96	5
TAP	107	144	4
TAP	107	144	6
TAP	107	240	2
HLD	107	288	1	96
TAP	107	288	3
HLD	108	0	0	96
HLD	108	96	7	96
BST	108	192	6
SF_	108	192	6	96	144	2
BST	109	96	4
SF_	109	96	4	96	144	0
HLD	110	0	2	96
TAP	110	96	0
HLD	110	144	3	96
TAP	110	240	7
TAP	110	288	4
TAP	110	288	6
TAP	111	0	1
TAP	111	0	3
HLD	111	96	5	96
TAP	111	192	7
HLD	111	240	4	96
TAP	111	336	0
TAP	112	0	1
TAP	112	0	3
TAP	112	96	4
TAP	112	96	6
TAP	112	192	0
TAP	112	192	7
HLD	112	288	2	96
TAP	113	0	0
HLD	113	48	3	96
TAP	113	144	7
TAP	113	192	4
TAP	113	192	6
TAP	113	288	1
TAP	113	288	3
TAP	114	0	0
TAP	114	0	7
TAP	114	96	3
STR	114	96	4
SXL	114	96	4	96	192	7
TAP	114	192	2
TAP	114	288	1
TAP	115	0	0
TAP	115	96	7
TAP	115	120	6
TAP	115	144	5
TAP	115	168	4
TAP	115	192	3
TAP	115	216	2
TAP	115	240	1
TAP	115	264	0
TAP	115	288	7
TAP	115	312	6
TAP	115	336	5
TAP	115	360	4
BRK	116	0	0
TAP	116	96	6
STR	116	144	7
SI_	116	144	7	96	48	5
TAP	116	240	7
TAP	116	288	0
TAP	117	0	0
TAP	117	0	1
TAP	117	96	1
STR	117	144	0
SI_	117	144	0	96	48	2
TAP	117	240	0
TAP	117	288	7
TAP	118	0	6
TAP	118	0	7
TAP	118	96	6
STR	118	144	7
SI_	118	144	7	96	48	5
TAP	118	240	7
TAP	118	288	0
TAP	119	0	0
STR	119	0	1
SLR	119	0	1	96	192	7
STR	119	96	4
SI_	119	96	4	96	96	6
HLD	120	0	2	96
TAP	120	96	0
HLD	120	144	3	96
TAP	120	240	7
TAP	120	288	0
TAP	120	288	4
TAP	121	0	2
TAP	121	0	6
HLD	121	96	5	96
TAP	121	192	7
HLD	121	240	4	96
TAP	121	336	0
TAP	122	0	3
TAP	122	0	7
TAP	122	96	1
TAP	122	96	5
TAP	122	192	3
TAP	122	192	7
BRK	122	288	3
BRK	122	288	4
TAP	123	0	2
TAP	123	48	3
TAP	123	96	1
BRK	123	192	0
BRK	123	192	7
TAP	123	288	6
TAP	123	336	4
TAP	124	0	5
TAP	124	96	3
TAP	124	96	4
BRK	124	192	0
BRK	124	192	7
TAP	124	288	1
TAP	124	288	6
STR	125	0	2
SI_	125	0	2	96	96	7
STR	125	0	5
SI_	125	0	5	96	96	0
TAP	125	288	0
TAP	125	288	1
TAP	126	0	2
TAP	126	0	3
TAP	126	96	4
TAP	126	96	5
BRK	126	192	6
TAP	126	240	7
TAP	126	288	5
TAP	126	336	0
TAP	127	0	4
TAP	127	48	1
TAP	127	96	0
TAP	127	144	1
TAP	127	192	7
TAP	127	240	2
TAP	127	288	6
TAP	127	336	3
HLD	128	0	4	96
HLD	128	96	5	96
HLD	128	192	6	120
STR	128	312	0
SXL	128	312	0	96	552	3
SXR	128	312	0	96	552	5

T_REC_TAP	536
T_REC_BRK	24
T_REC_XTP	0
T_REC_HLD	78
T_REC_XHO	0
T_REC_STR	89
T_REC_BST	11
T_REC_XST	0
T_REC_TTP	0
T_REC_THO	0
T_REC_SLD	118
T_REC_ALL	856
T_NUM_TAP	625
T_NUM_BRK	35
T_NUM_HLD	78
T_NUM_SLD	118
T_NUM_ALL	856
T_JUDGE_TAP	660
T_JUDGE_HLD	110
T_JUDGE_SLD	118
T_JUDGE_ALL	888
TTM_EACHPAIRS	146
TTM_SCR_TAP	312500
TTM_SCR_BRK	91000
TTM_SCR_HLD	78000
TTM_SCR_SLD	177000
TTM_SCR_ALL	658500
TTM_SCR_S	635350
TTM_SCR_SS	655000
TTM_RAT_ACV	10053

