VERSION	0.00.00	1.03.00
FES_MODE	0
BPM_DEF	189.000	252.000	252.000	126.000
MET_DEF	4	4
RESOLUTION	384
CLK_DEF	672
COMPATIBLE_CODE	MA2

BPM	0	0	189.000
BPM	43	0	126.000
BPM	49	168	252.000
BPM	127	192	240.000
BPM	128	0	228.000
BPM	128	96	216.000
BPM	128	192	204.000
BPM	128	288	189.000
MET	0	0	4	7
MET	10	192	4	3
MET	11	96	8	9
MET	13	192	4	6
MET	15	0	4	7
MET	32	192	4	6
MET	43	0	4	4
MET	44	0	16	11
MET	48	312	8	5
MET	49	168	4	5
MET	51	360	4	6
MET	54	360	16	17
MET	56	0	4	5
MET	58	192	4	6
MET	61	192	4	5
MET	62	288	4	6
MET	67	96	4	5
MET	69	288	4	6
MET	72	288	4	5
MET	74	0	4	6
MET	78	192	4	4
MET	80	192	4	5
MET	81	288	4	6
MET	84	288	4	5
MET	89	288	4	6
MET	92	288	4	5
MET	94	0	4	6
MET	95	192	4	5
MET	96	288	4	6
MET	101	96	4	7
MET	103	0	4	6
MET	104	192	4	5
MET	107	0	4	6
MET	110	0	4	5
MET	111	96	4	6
MET	114	96	4	7
MET	116	0	4	4
MET	120	0	4	5
MET	121	96	4	6
MET	122	288	4	7
MET	124	192	4	8
MET	126	192	4	9
MET	128	288	4	10

TAP	1	288	2
TAP	1	336	2
TAP	2	0	3
TAP	2	48	3
TAP	2	96	2
TAP	2	144	2
TAP	2	192	3
TAP	2	240	2
TAP	2	288	2
TAP	2	336	4
TAP	3	0	2
TAP	3	48	2
TAP	3	96	5
TAP	3	144	5
TAP	3	192	1
TAP	3	192	6
TAP	3	288	2
TAP	3	288	5
TAP	4	0	3
TAP	4	0	4
TAP	4	96	3
HLD	4	144	3	192
TAP	4	240	4
TAP	4	336	5
TAP	5	0	4
TAP	5	48	3
HLD	5	96	2	288
TAP	5	192	0
TAP	5	288	0
TAP	6	0	7
HLD	6	48	7	240
TAP	6	144	5
TAP	6	240	4
TAP	6	288	4
HLD	7	0	2	96
HLD	7	0	3	96
STR	7	144	1
SCL	7	144	1	96	336	3
TAP	7	144	4
TAP	8	288	5
TAP	8	336	5
TAP	9	0	4
TAP	9	48	4
TAP	9	144	3
TAP	9	144	6
TAP	9	240	3
TAP	9	240	6
TAP	9	336	2
TAP	10	0	2
TAP	10	48	1
TAP	10	48	3
TAP	10	192	0
HLD	10	192	7	192
TAP	10	288	0
TAP	11	0	0
TAP	11	48	1
TAP	11	48	6
HLD	11	144	1	144
HLD	11	144	6	144
TAP	12	0	5
TAP	12	48	4
TAP	12	96	3
HLD	12	144	2	72
HLD	12	216	3	72
HLD	12	288	2	72
HLD	12	360	5	72
HLD	13	48	4	72
HLD	13	120	5	72
STR	13	192	2
SCR	13	192	2	96	96	5
STR	14	96	6
SUL	14	96	6	96	144	1
STR	15	0	0
SCR	15	0	0	96	384	7
TAP	16	192	3
TAP	16	192	4
TAP	16	288	5
TAP	16	336	5
TAP	17	0	4
TAP	17	48	4
TAP	17	96	5
TAP	17	144	5
TAP	17	192	4
TAP	17	240	5
TAP	17	288	5
TAP	17	336	3
TAP	18	0	5
TAP	18	48	5
TAP	18	96	2
TAP	18	144	2
TAP	18	192	1
TAP	18	192	6
TAP	18	288	7
HLD	18	336	7	96
HLD	19	48	6	96
TAP	19	144	5
HLD	19	288	5	96
HLD	20	0	4	96
HLD	20	96	3	96
TAP	20	192	2
STR	20	240	2
SCL	20	240	2	96	240	5
TAP	21	336	0
HLD	22	0	0	96
TAP	22	96	1
HLD	22	144	1	96
HLD	22	240	2	96
TAP	22	336	3
HLD	23	96	3	96
HLD	23	192	4	96
HLD	23	288	5	96
TAP	24	0	6
STR	24	48	6
SCL	24	48	6	96	288	1
TAP	25	192	1
TAP	25	192	6
TAP	25	288	7
HLD	25	336	7	96
HLD	26	48	6	96
TAP	26	144	5
HLD	26	288	5	96
HLD	27	0	4	96
HLD	27	96	3	96
TAP	27	192	2
STR	27	240	2
SCL	27	240	2	96	240	5
HLD	28	288	4	96
HLD	29	0	5	96
TAP	29	96	6
HLD	29	288	3	96
HLD	30	0	2	96
HLD	30	96	1	96
STR	30	192	0
SF_	30	192	0	96	336	4
TAP	32	192	4
HLD	32	192	5	192
TAP	32	288	3
TAP	33	0	2
HLD	33	96	2	192
TAP	33	96	3
TAP	33	192	4
TAP	33	288	5
TAP	34	0	3
HLD	34	0	5	192
TAP	34	96	2
TAP	34	192	1
HLD	34	288	2	192
TAP	34	288	4
TAP	35	0	5
TAP	35	96	6
TAP	35	192	3
HLD	35	192	4	192
TAP	35	288	5
TAP	36	0	6
HLD	36	96	3	192
TAP	36	96	4
TAP	36	192	2
TAP	36	288	1
TAP	37	0	3
HLD	37	0	4	192
TAP	37	96	5
TAP	37	192	7
HLD	37	288	3	192
TAP	37	288	4
TAP	38	0	2
TAP	38	96	0
TAP	38	192	3
TAP	38	192	4
TAP	38	288	5
TAP	38	336	4
TAP	39	0	5
TAP	39	96	3
TAP	39	96	4
TAP	39	192	2
TAP	39	240	3
TAP	39	288	2
TAP	40	0	3
TAP	40	0	4
TAP	40	96	6
TAP	40	144	4
TAP	40	192	5
TAP	40	288	3
TAP	40	288	4
TAP	41	0	1
TAP	41	48	3
TAP	41	96	2
TAP	41	192	3
TAP	41	192	4
TAP	41	288	7
TAP	41	336	4
TAP	42	0	6
TAP	42	96	3
TAP	42	96	4
TAP	42	192	0
TAP	42	240	3
TAP	42	288	1
TAP	43	0	0
TAP	43	0	7
TAP	43	96	1
TAP	43	96	6
TAP	43	192	2
TAP	43	192	5
TAP	43	288	3
TAP	43	288	4
TAP	44	0	2
TAP	44	0	5
TAP	44	48	3
TAP	44	96	4
TAP	44	144	5
TAP	44	168	5
TAP	44	192	4
TAP	44	264	3
TAP	44	264	6
TAP	44	312	5
TAP	44	360	4
TAP	45	24	2
TAP	45	48	2
TAP	45	72	3
TAP	45	144	1
TAP	45	144	4
TAP	45	192	2
TAP	45	240	3
TAP	45	288	5
TAP	45	312	5
TAP	45	336	4
TAP	46	24	2
TAP	46	24	5
TAP	46	72	4
TAP	46	120	3
TAP	46	168	2
TAP	46	192	2
TAP	46	216	3
TAP	46	288	2
HLD	46	288	5	96
TAP	46	336	3
TAP	47	0	4
TAP	47	48	5
TAP	47	72	5
TAP	47	96	4
HLD	47	168	3	96
TAP	47	168	6
TAP	47	216	5
TAP	47	264	4
TAP	47	312	2
TAP	47	336	2
TAP	47	360	3
TAP	48	48	1
HLD	48	48	4	96
TAP	48	96	2
TAP	48	144	3
TAP	48	192	5
TAP	48	216	5
TAP	48	240	4
HLD	48	312	2	96
TAP	48	312	5
TAP	48	360	4
TAP	49	24	3
TAP	49	72	2
TAP	49	96	2
TAP	49	120	3
HLD	49	168	0	96
HLD	49	168	1	96
HLD	49	312	0	96
HLD	49	312	1	96
TAP	50	72	2
TAP	50	72	7
TAP	50	168	2
TAP	50	168	7
HLD	50	264	6	96
HLD	50	264	7	96
HLD	51	24	6	96
HLD	51	24	7	96
TAP	51	168	0
TAP	51	168	5
TAP	51	264	0
TAP	51	264	5
HLD	51	360	2	96
HLD	51	360	3	96
TAP	52	120	2
TAP	52	120	3
HLD	52	264	4	96
HLD	52	264	5	96
TAP	53	24	4
TAP	53	24	5
TAP	53	168	3
TAP	53	168	4
TAP	53	312	2
TAP	53	312	5
TAP	54	72	1
TAP	54	72	6
TAP	54	216	0
TAP	54	216	7
STR	54	360	0
SLR	54	360	0	96	216	4
STR	54	360	7
SLL	54	360	7	96	216	3
STR	56	0	1
SI_	56	0	1	96	96	4
STR	56	144	0
SI_	56	144	0	96	96	5
TAP	56	288	1
TAP	57	0	1
STR	57	96	6
SI_	57	96	6	96	96	3
STR	57	240	7
SI_	57	240	7	96	96	2
TAP	58	0	6
TAP	58	96	6
STR	58	192	1
SI_	58	192	1	96	96	4
STR	58	336	0
SI_	58	336	0	96	96	5
TAP	59	96	1
TAP	59	192	2
TAP	59	288	3
STR	60	0	4
SI_	60	0	4	96	96	1
STR	60	0	5
SI_	60	0	5	96	96	0
TAP	60	288	2
TAP	60	288	7
STR	61	192	6
SI_	61	192	6	96	96	3
STR	61	336	7
SI_	61	336	7	96	96	2
TAP	62	96	6
TAP	62	192	6
STR	62	288	1
SI_	62	288	1	96	96	4
STR	63	48	0
SI_	63	48	0	96	96	5
TAP	63	192	1
TAP	63	288	1
TAP	64	0	1
STR	64	96	6
SI_	64	96	6	96	96	3
STR	64	240	7
SI_	64	240	7	96	96	2
STR	65	0	0
SI_	65	0	0	96	96	5
STR	65	144	1
SI_	65	144	1	96	96	4
TAP	65	288	6
TAP	66	0	7
TAP	66	96	0
TAP	66	192	1
TAP	66	192	6
STR	67	96	6
SI_	67	96	6	96	96	3
STR	67	240	7
SI_	67	240	7	96	96	2
TAP	68	0	6
TAP	68	96	6
STR	68	192	1
SI_	68	192	1	96	96	4
STR	68	336	0
SI_	68	336	0	96	96	5
TAP	69	96	1
TAP	69	192	1
STR	69	288	6
SI_	69	288	6	96	96	3
STR	70	48	7
SI_	70	48	7	96	96	2
TAP	70	192	6
TAP	70	288	5
TAP	71	0	4
STR	71	96	2
SI_	71	96	2	96	96	7
STR	71	96	3
SI_	71	96	3	96	96	6
TAP	72	0	0
TAP	72	0	5
STR	72	288	0
SI_	72	288	0	96	96	4
HLD	73	48	5	96
TAP	73	192	3
TAP	73	192	6
TAP	73	288	3
TAP	73	288	6
STR	74	0	7
SI_	74	0	7	96	96	3
HLD	74	144	2	96
TAP	74	288	1
TAP	74	288	4
TAP	75	0	1
TAP	75	0	4
TAP	75	96	1
TAP	75	96	4
STR	75	192	4
SI_	75	192	4	96	96	0
STR	75	192	5
SI_	75	192	5	96	96	7
STR	76	96	2
SI_	76	96	2	96	96	0
STR	76	96	3
SI_	76	96	3	96	96	7
STR	77	0	3
SXR	77	0	3	96	384	0
STR	77	0	4
SXL	77	0	4	96	384	7
TAP	78	192	1
HLD	78	192	6	576
BRK	80	0	0
TAP	80	192	2
TAP	80	192	5
TAP	80	288	4
TAP	80	336	4
TAP	81	48	3
TAP	81	96	3
TAP	81	192	3
TAP	81	192	4
TAP	81	288	1
TAP	81	288	6
TAP	82	0	5
TAP	82	96	4
TAP	82	192	3
TAP	82	288	2
TAP	83	0	1
HLD	83	96	2	192
TAP	83	192	3
TAP	83	288	4
HLD	84	0	5	192
TAP	84	96	4
TAP	84	192	3
HLD	84	288	1	192
TAP	85	0	2
TAP	85	96	3
HLD	85	192	6	96
TAP	85	288	5
TAP	86	0	3
TAP	86	0	4
TAP	86	192	2
TAP	86	288	1
TAP	87	0	0
TAP	87	96	7
TAP	87	192	6
TAP	87	288	5
HLD	88	0	4	192
TAP	88	192	2
TAP	88	288	2
TAP	89	0	1
TAP	89	0	3
TAP	89	96	5
TAP	89	192	5
TAP	89	288	4
TAP	89	288	6
TAP	90	0	2
TAP	90	96	2
TAP	90	192	0
TAP	90	240	0
TAP	90	336	1
TAP	90	336	6
TAP	91	48	7
HLD	91	96	7	144
TAP	91	240	0
TAP	92	0	1
TAP	92	96	2
TAP	92	192	3
TAP	92	288	4
TAP	93	0	5
STR	93	96	6
SUL	93	96	6	96	96	2
TAP	93	192	7
HLD	94	0	1	192
TAP	94	96	0
TAP	94	192	7
HLD	94	288	6	192
TAP	95	0	7
TAP	95	96	0
HLD	95	192	2	192
TAP	95	288	1
TAP	96	0	0
HLD	96	96	5	96
TAP	96	192	6
TAP	96	288	0
TAP	96	288	7
TAP	97	0	6
TAP	97	48	7
TAP	97	96	6
TAP	97	192	0
TAP	97	192	7
TAP	97	288	1
TAP	97	336	0
TAP	98	0	1
TAP	98	96	0
TAP	98	96	7
TAP	98	192	6
TAP	98	240	7
TAP	98	288	6
TAP	99	0	1
TAP	99	0	6
TAP	99	96	2
TAP	99	96	5
TAP	99	192	3
TAP	99	192	4
TAP	99	288	2
TAP	99	336	3
TAP	100	0	2
TAP	100	48	3
TAP	100	96	2
TAP	100	192	5
TAP	100	240	4
TAP	100	288	5
TAP	100	336	4
TAP	101	0	5
HLD	101	96	2	96
HLD	101	192	1	96
HLD	101	288	0	96
STR	102	0	7
SI_	102	0	7	96	96	3
HLD	102	288	4	96
HLD	103	0	5	96
HLD	103	96	6	96
HLD	103	192	7	96
HLD	103	288	0	96
HLD	104	0	1	96
HLD	104	96	2	96
STR	104	192	3
SXR	104	192	3	96	336	0
STR	105	288	4
SXL	105	288	4	96	336	7
TAP	107	0	0
TAP	107	96	1
TAP	107	96	7
TAP	107	192	2
TAP	107	192	6
TAP	107	288	7
TAP	108	0	0
TAP	108	0	6
TAP	108	96	1
TAP	108	96	5
STR	108	192	2
SI_	108	192	2	96	72	0
STR	108	192	4
SI_	108	192	4	96	72	6
STR	109	96	3
SI_	109	96	3	96	72	1
STR	109	96	5
SI_	109	96	5	96	72	7
HLD	110	0	0	96
HLD	110	144	0	96
TAP	110	288	1
TAP	110	288	7
TAP	111	0	2
TAP	111	0	6
HLD	111	96	7	96
HLD	111	240	7	96
TAP	112	0	0
TAP	112	0	6
TAP	112	96	1
TAP	112	96	5
TAP	112	192	2
TAP	112	192	4
HLD	112	288	2	96
HLD	112	288	3	96
TAP	113	48	1
TAP	113	48	4
HLD	113	192	4	96
HLD	113	192	5	96
TAP	113	336	3
TAP	113	336	6
TAP	114	96	0
TAP	114	96	7
TAP	114	192	1
TAP	114	192	6
TAP	114	288	2
TAP	114	288	5
STR	115	0	3
SLR	115	0	3	96	144	0
STR	115	0	4
SLL	115	0	4	96	144	7
TAP	116	0	0
TAP	116	0	1
TAP	116	96	2
TAP	116	192	6
TAP	116	192	7
TAP	116	288	5
TAP	117	0	0
TAP	117	0	1
TAP	117	96	2
TAP	117	192	6
TAP	117	192	7
TAP	117	288	5
TAP	118	0	2
TAP	118	0	3
TAP	118	96	0
TAP	118	192	4
TAP	118	192	5
TAP	118	288	7
TAP	119	0	3
TAP	119	0	4
TAP	119	96	2
TAP	119	96	5
BRK	119	192	0
BRK	119	192	7
HLD	120	0	2	96
HLD	120	0	3	96
HLD	120	144	0	96
HLD	120	144	1	96
TAP	120	288	2
TAP	120	288	7
TAP	121	0	3
TAP	121	0	6
HLD	121	96	4	96
HLD	121	96	5	96
HLD	121	240	6	96
HLD	121	240	7	96
TAP	122	0	0
TAP	122	0	5
TAP	122	96	1
TAP	122	96	4
TAP	122	192	2
TAP	122	192	3
HLD	122	288	5	192
TAP	123	0	4
TAP	123	96	4
HLD	123	192	2	288
TAP	123	288	3
TAP	124	0	3
TAP	124	96	3
BST	124	192	4
SI_	124	192	4	96	72	7
TAP	124	288	3
BST	125	0	3
SI_	125	0	3	96	72	1
TAP	125	96	4
BST	125	192	4
SI_	125	192	4	96	72	6
TAP	125	288	3
BST	126	0	3
SI_	126	0	3	96	72	0
TAP	126	96	4
BST	126	192	4
SCR	126	192	4	96	768	3

T_REC_TAP	417
T_REC_BRK	3
T_REC_XTP	0
T_REC_HLD	100
T_REC_XHO	0
T_REC_STR	52
T_REC_BST	5
T_REC_XST	0
T_REC_TTP	0
T_REC_THO	0
T_REC_SLD	57
T_REC_ALL	634
T_NUM_TAP	469
T_NUM_BRK	8
T_NUM_HLD	100
T_NUM_SLD	57
T_NUM_ALL	634
T_JUDGE_TAP	477
T_JUDGE_HLD	192
T_JUDGE_SLD	57
T_JUDGE_ALL	726
TTM_EACHPAIRS	121
TTM_SCR_TAP	234500
TTM_SCR_BRK	20800
TTM_SCR_HLD	100000
TTM_SCR_SLD	85500
TTM_SCR_ALL	440800
TTM_SCR_S	426800
TTM_SCR_SS	440000
TTM_RAT_ACV	10018

