VERSION	0.00.00	1.03.00
FES_MODE	0
BPM_DEF	189.000	252.000	252.000	126.000
MET_DEF	4	4
RESOLUTION	384
CLK_DEF	672
COMPATIBLE_CODE	MA2

BPM	0	0	189.000
BPM	43	0	126.000
BPM	49	168	252.000
BPM	127	192	240.000
BPM	128	0	228.000
BPM	128	96	216.000
BPM	128	192	204.000
BPM	128	288	189.000
MET	0	0	4	7
MET	10	192	4	3
MET	11	96	8	9
MET	13	192	4	6
MET	15	0	4	7
MET	32	192	4	6
MET	43	0	4	4
MET	44	0	16	11
MET	48	312	8	5
MET	49	168	4	5
MET	51	360	4	6
MET	54	360	16	17
MET	56	0	4	5
MET	58	192	4	6
MET	61	192	4	5
MET	62	288	4	6
MET	67	96	4	5
MET	69	288	4	6
MET	72	288	4	5
MET	74	0	4	6
MET	78	192	4	4
MET	80	192	4	5
MET	81	288	4	6
MET	84	288	4	5
MET	89	288	4	6
MET	92	288	4	5
MET	94	0	4	6
MET	95	192	4	5
MET	96	288	4	6
MET	101	96	4	7
MET	103	0	4	6
MET	104	192	4	5
MET	107	0	4	6
MET	110	0	4	5
MET	111	96	4	6
MET	114	96	4	7
MET	116	0	4	4
MET	120	0	4	5
MET	121	96	4	6
MET	122	288	4	7
MET	124	192	4	8
MET	126	192	4	9
MET	128	288	4	10

TAP	1	288	0
TAP	2	0	0
TAP	2	96	1
TAP	2	192	1
TAP	2	288	2
TAP	3	0	2
TAP	3	0	3
TAP	3	192	4
TAP	3	288	4
TAP	4	0	5
TAP	4	96	5
TAP	4	192	6
TAP	4	288	6
TAP	4	288	7
TAP	5	96	7
TAP	5	192	7
TAP	5	288	6
TAP	6	0	6
TAP	6	96	5
TAP	6	192	4
TAP	6	192	5
TAP	7	0	3
TAP	7	96	3
TAP	7	192	2
TAP	7	288	2
TAP	8	0	1
TAP	8	96	0
TAP	8	96	1
TAP	8	288	0
TAP	9	0	1
TAP	9	96	2
TAP	9	192	3
TAP	9	288	4
TAP	10	0	5
TAP	10	96	6
TAP	10	192	7
TAP	11	0	7
TAP	11	192	0
STR	12	0	0
SXL	12	0	0	96	288	4
TAP	13	192	5
TAP	13	288	4
TAP	13	288	5
TAP	14	0	4
TAP	14	0	5
TAP	14	96	2
TAP	14	192	2
TAP	14	192	3
TAP	14	288	2
TAP	14	288	3
HLD	15	0	5	384
TAP	15	192	4
TAP	15	288	4
TAP	16	0	4
TAP	16	96	4
TAP	16	96	5
TAP	16	192	3
HLD	16	288	2	384
TAP	17	96	3
TAP	17	192	3
TAP	17	288	3
TAP	18	0	2
TAP	18	0	3
TAP	18	96	4
TAP	18	192	5
TAP	18	288	6
TAP	19	0	7
TAP	19	96	7
TAP	19	192	6
TAP	19	288	5
TAP	20	0	3
TAP	20	0	4
TAP	20	96	2
TAP	20	192	1
TAP	20	288	0
TAP	21	0	0
TAP	21	96	1
TAP	21	192	2
TAP	21	288	3
TAP	21	288	4
TAP	22	0	5
TAP	22	96	6
TAP	22	192	7
TAP	22	288	7
TAP	23	0	6
TAP	23	96	5
TAP	23	192	3
TAP	23	192	4
TAP	23	288	2
TAP	24	0	1
TAP	24	96	0
TAP	24	192	0
TAP	24	288	1
TAP	25	0	2
TAP	25	96	3
TAP	25	96	4
TAP	25	192	1
TAP	25	288	2
TAP	26	0	3
TAP	26	96	3
TAP	26	192	2
TAP	26	288	1
TAP	27	0	0
TAP	27	0	7
TAP	27	96	6
TAP	27	192	5
TAP	27	288	4
TAP	28	0	4
TAP	28	96	5
TAP	28	192	6
TAP	28	288	0
TAP	28	288	7
TAP	29	0	0
TAP	29	0	7
TAP	29	96	1
TAP	29	96	6
TAP	29	288	3
TAP	29	288	4
TAP	30	0	5
TAP	30	96	6
STR	30	192	5
SV_	30	192	5	96	384	2
STR	30	192	7
SV_	30	192	7	96	384	2
HLD	32	192	3	288
HLD	33	96	2	288
HLD	34	0	1	288
HLD	34	288	0	288
TAP	35	192	7
HLD	36	96	4	288
HLD	37	0	5	288
HLD	37	288	6	288
HLD	38	192	7	288
TAP	39	96	0
TAP	40	0	1
TAP	40	0	6
TAP	40	288	2
TAP	40	288	5
TAP	41	192	3
TAP	41	192	4
TAP	42	96	3
TAP	42	96	4
TAP	43	0	5
TAP	43	96	4
TAP	43	192	3
TAP	43	288	2
STR	44	0	1
SI_	44	0	1	96	96	5
STR	44	264	6
SI_	44	264	6	96	96	2
STR	45	144	1
SI_	45	144	1	96	96	4
STR	46	24	6
SI_	46	24	6	96	96	3
STR	46	288	2
SI_	46	288	2	96	96	7
STR	47	168	5
SI_	47	168	5	96	96	0
TAP	48	48	3
TAP	48	48	4
STR	48	144	3
SI_	48	144	3	96	96	0
STR	48	144	4
SI_	48	144	4	96	96	7
HLD	49	168	0	288
HLD	49	168	1	288
HLD	50	264	6	288
HLD	50	264	7	288
HLD	51	360	4	288
HLD	51	360	5	288
HLD	53	168	2	288
HLD	53	168	3	288
BRK	54	360	0
BRK	54	360	7
TAP	56	0	6
TAP	56	96	6
TAP	56	192	5
TAP	56	288	4
TAP	56	288	5
TAP	57	96	1
TAP	57	192	1
TAP	57	288	2
TAP	58	0	2
TAP	58	0	3
TAP	58	192	4
TAP	58	288	5
TAP	59	0	6
TAP	59	96	7
TAP	59	192	0
TAP	59	288	1
HLD	60	0	2	288
TAP	60	288	0
TAP	61	192	3
TAP	61	288	2
TAP	62	96	2
TAP	62	96	3
TAP	62	192	2
TAP	62	192	3
TAP	62	288	4
TAP	63	0	5
TAP	63	192	4
TAP	63	192	5
TAP	63	288	4
TAP	63	288	5
TAP	64	96	3
TAP	64	192	2
TAP	64	288	2
TAP	65	0	4
TAP	65	96	5
TAP	65	192	5
TAP	65	288	1
TAP	65	288	6
TAP	66	0	1
TAP	66	0	6
TAP	66	96	0
TAP	66	96	7
TAP	66	192	0
TAP	66	192	7
TAP	67	96	1
TAP	67	192	1
TAP	67	288	2
TAP	68	0	2
TAP	68	0	3
TAP	68	192	6
TAP	68	288	6
TAP	69	0	5
TAP	69	96	4
TAP	69	96	5
TAP	69	288	3
TAP	70	0	2
TAP	70	96	1
TAP	70	192	0
TAP	70	288	7
TAP	71	0	6
HLD	71	96	5	288
TAP	72	0	7
TAP	72	288	4
TAP	73	0	5
TAP	73	192	4
TAP	73	192	5
TAP	73	288	4
TAP	73	288	5
TAP	74	0	3
TAP	74	96	2
TAP	74	288	2
TAP	74	288	3
TAP	75	0	2
TAP	75	0	3
TAP	75	192	4
TAP	75	288	5
TAP	76	0	5
TAP	76	96	3
TAP	76	192	2
TAP	76	288	1
TAP	77	0	0
TAP	77	0	7
TAP	77	96	0
TAP	77	96	7
TAP	77	192	1
TAP	77	192	6
TAP	77	288	1
TAP	77	288	6
TAP	78	0	2
TAP	78	0	5
TAP	78	96	2
TAP	78	96	5
STR	78	192	3
SCL	78	192	3	96	288	0
STR	78	192	4
SCR	78	192	4	96	288	7
TAP	80	192	5
TAP	80	288	4
TAP	81	0	3
TAP	81	96	2
TAP	81	96	3
STR	81	288	5
SLR	81	288	5	96	288	2
TAP	83	96	2
TAP	83	192	2
TAP	83	288	3
TAP	84	0	3
TAP	84	96	4
TAP	84	192	4
TAP	84	288	5
TAP	85	0	5
TAP	85	96	4
TAP	85	192	3
TAP	85	192	4
TAP	86	0	0
TAP	86	96	1
TAP	86	192	2
TAP	86	288	0
TAP	86	288	1
TAP	87	96	7
TAP	87	192	6
TAP	87	288	5
TAP	88	0	6
TAP	88	0	7
TAP	88	192	0
TAP	88	288	0
TAP	89	0	0
TAP	89	96	7
TAP	89	192	7
TAP	89	288	7
STR	90	0	0
SI_	90	0	0	96	192	4
HLD	91	96	5	384
TAP	92	0	4
TAP	92	96	4
HLD	92	288	2	288
TAP	93	192	3
HLD	94	0	1	288
HLD	94	288	0	288
HLD	95	192	7	288
TAP	96	96	6
TAP	96	288	5
TAP	97	0	4
TAP	97	0	5
TAP	97	192	2
TAP	97	288	2
TAP	97	288	3
TAP	98	96	5
TAP	98	192	4
TAP	98	192	5
TAP	99	0	2
TAP	99	96	2
TAP	99	96	3
TAP	99	288	1
TAP	100	0	0
TAP	100	0	1
TAP	100	192	6
TAP	100	288	6
TAP	100	288	7
TAP	101	96	1
TAP	101	192	0
TAP	101	192	1
TAP	102	0	2
TAP	102	0	7
TAP	102	288	6
TAP	103	0	6
TAP	103	0	7
TAP	103	192	0
TAP	103	192	5
TAP	103	288	0
TAP	103	288	5
STR	104	192	0
SCR	104	192	0	96	192	3
STR	105	288	7
SCL	105	288	7	96	192	4
TAP	107	0	3
TAP	107	96	3
TAP	107	192	3
TAP	107	288	4
TAP	108	0	4
TAP	108	96	4
STR	108	192	2
SLL	108	192	2	96	288	3
STR	108	192	5
SLR	108	192	5	96	288	4
HLD	110	0	5	288
TAP	110	288	4
TAP	111	0	4
TAP	111	0	5
HLD	111	96	2	288
TAP	112	0	3
TAP	112	96	2
TAP	112	96	3
HLD	112	288	1	288
HLD	113	192	0	288
HLD	114	96	7	288
BRK	115	0	6
TAP	116	0	2
TAP	116	96	2
TAP	116	96	3
TAP	116	192	5
TAP	116	288	4
TAP	116	288	5
TAP	117	0	2
TAP	117	96	2
TAP	117	96	3
TAP	117	192	5
TAP	117	288	4
TAP	117	288	5
TAP	118	0	6
TAP	118	96	6
TAP	118	96	7
TAP	118	192	1
TAP	118	288	0
TAP	118	288	1
TAP	119	0	6
TAP	119	96	6
TAP	119	96	7
TAP	119	192	0
TAP	119	192	5
HLD	120	0	2	288
TAP	120	288	3
TAP	121	0	2
TAP	121	0	3
HLD	121	96	5	288
TAP	122	0	4
TAP	122	96	4
TAP	122	96	5
TAP	122	288	3
TAP	123	0	3
TAP	123	96	2
TAP	123	192	2
TAP	123	288	1
TAP	124	0	1
TAP	124	96	0
TAP	124	192	0
TAP	124	288	7
TAP	125	0	7
TAP	125	96	6
TAP	125	192	6
TAP	125	288	5
TAP	126	0	5
TAP	126	96	4
STR	126	192	4
SCR	126	192	4	96	768	3

T_REC_TAP	344
T_REC_BRK	3
T_REC_XTP	0
T_REC_HLD	32
T_REC_XHO	0
T_REC_STR	20
T_REC_BST	0
T_REC_XST	0
T_REC_TTP	0
T_REC_THO	0
T_REC_SLD	20
T_REC_ALL	419
T_NUM_TAP	364
T_NUM_BRK	3
T_NUM_HLD	32
T_NUM_SLD	20
T_NUM_ALL	419
T_JUDGE_TAP	367
T_JUDGE_HLD	131
T_JUDGE_SLD	20
T_JUDGE_ALL	518
TTM_EACHPAIRS	82
TTM_SCR_TAP	182000
TTM_SCR_BRK	7800
TTM_SCR_HLD	32000
TTM_SCR_SLD	30000
TTM_SCR_ALL	251800
TTM_SCR_S	244000
TTM_SCR_SS	251500
TTM_RAT_ACV	10011

