VERSION	0.00.00	1.03.00
FES_MODE	0
BPM_DEF	189.000	252.000	252.000	126.000
MET_DEF	4	4
RESOLUTION	384
CLK_DEF	672
COMPATIBLE_CODE	MA2

BPM	0	0	189.000
BPM	43	0	126.000
BPM	49	168	252.000
BPM	127	192	240.000
BPM	128	0	228.000
BPM	128	96	216.000
BPM	128	192	204.000
BPM	128	288	189.000
MET	0	0	4	7
MET	10	192	4	3
MET	11	96	8	9
MET	13	192	4	6
MET	15	0	4	7
MET	32	192	4	6
MET	43	0	4	4
MET	44	0	16	11
MET	48	312	8	5
MET	49	168	4	5
MET	51	360	4	6
MET	54	360	16	17
MET	56	0	4	5
MET	58	192	4	6
MET	61	192	4	5
MET	62	288	4	6
MET	67	96	4	5
MET	69	288	4	6
MET	72	288	4	5
MET	74	0	4	6
MET	78	192	4	4
MET	80	192	4	5
MET	81	288	4	6
MET	84	288	4	5
MET	89	288	4	6
MET	92	288	4	5
MET	94	0	4	6
MET	95	192	4	5
MET	96	288	4	6
MET	101	96	4	7
MET	103	0	4	6
MET	104	192	4	5
MET	107	0	4	6
MET	110	0	4	5
MET	111	96	4	6
MET	114	96	4	7
MET	116	0	4	4
MET	120	0	4	5
MET	121	96	4	6
MET	122	288	4	7
MET	124	192	4	8
MET	126	192	4	9
MET	128	288	4	10

HLD	1	288	0	576
TAP	3	192	0
TAP	4	0	0
HLD	4	192	7	192
TAP	5	96	7
TAP	5	288	7
HLD	6	96	0	192
STR	7	0	0
SI_	7	0	0	96	288	3
STR	8	288	7
SI_	8	288	7	96	288	4
HLD	10	192	0	192
TAP	11	192	1
TAP	12	0	2
HLD	12	96	2	264
TAP	13	192	3
TAP	14	0	3
TAP	14	192	4
HLD	15	0	4	192
HLD	16	0	5	192
TAP	16	288	5
TAP	17	96	5
HLD	17	288	6	192
HLD	17	288	7	192
TAP	18	192	6
TAP	19	0	6
TAP	19	192	5
TAP	20	0	5
HLD	20	192	4	384
HLD	20	192	5	384
TAP	22	0	4
TAP	22	192	4
TAP	23	0	3
TAP	23	192	3
HLD	24	0	3	384
HLD	24	0	4	384
TAP	25	192	3
TAP	26	0	3
TAP	26	192	2
TAP	27	0	2
HLD	27	192	2	384
HLD	27	192	3	384
TAP	29	0	0
TAP	29	0	1
TAP	29	192	0
TAP	29	192	1
TAP	30	0	0
TAP	30	96	0
TAP	30	192	7
STR	30	288	7
SI_	30	288	7	96	288	3
HLD	32	192	0	192
TAP	33	96	0
TAP	33	288	1
HLD	34	0	1	192
TAP	34	288	1
TAP	35	96	2
HLD	35	192	2	192
TAP	36	96	2
TAP	36	288	3
HLD	37	0	3	192
TAP	37	288	3
TAP	38	96	4
HLD	38	192	4	192
TAP	39	96	4
TAP	39	288	5
HLD	40	0	5	192
TAP	40	288	5
TAP	41	96	6
HLD	41	192	6	192
TAP	42	96	6
TAP	42	288	7
STR	43	0	7
SI_	43	0	7	96	192	3
HLD	44	0	2	144
HLD	44	264	3	144
HLD	45	144	4	144
HLD	46	24	5	144
STR	46	288	6
SI_	46	288	6	96	168	3
STR	48	48	1
SI_	48	48	1	96	168	4
HLD	49	168	6	288
HLD	49	168	7	288
HLD	50	264	0	288
HLD	50	264	1	288
HLD	51	360	7	144
HLD	52	264	0	144
HLD	53	168	1	144
HLD	53	168	7	144
HLD	54	72	0	144
HLD	54	72	6	144
BRK	54	360	0
BRK	54	360	7
HLD	56	0	6	144
TAP	56	288	6
HLD	57	96	5	144
TAP	58	0	5
HLD	58	192	4	144
TAP	59	96	4
HLD	60	0	3	288
TAP	60	288	4
HLD	61	192	2	144
HLD	61	192	3	144
TAP	62	96	2
TAP	62	96	3
HLD	62	288	4	144
HLD	62	288	5	144
TAP	63	192	4
TAP	63	192	5
HLD	64	96	2	144
HLD	65	0	1	144
TAP	65	288	0
TAP	65	288	7
BRK	66	192	1
BRK	66	192	6
HLD	67	96	1	144
TAP	68	0	1
HLD	68	192	2	144
TAP	69	96	2
HLD	69	288	3	144
TAP	70	192	3
HLD	71	96	4	288
TAP	72	0	3
HLD	72	288	4	144
HLD	72	288	5	144
TAP	73	192	4
TAP	73	192	5
HLD	74	0	2	144
HLD	74	0	3	144
TAP	74	288	2
TAP	74	288	3
HLD	75	192	5	144
HLD	76	96	6	144
TAP	77	0	6
TAP	77	0	7
TAP	77	288	0
TAP	77	288	1
STR	78	192	7
SCL	78	192	7	96	384	4
HLD	80	192	3	288
HLD	80	192	5	288
HLD	81	288	2	288
HLD	81	288	4	288
TAP	83	96	0
TAP	83	96	1
TAP	84	0	0
TAP	84	0	7
TAP	84	288	6
TAP	84	288	7
BRK	85	192	0
BRK	85	192	7
HLD	86	0	7	288
HLD	87	96	6	288
HLD	88	192	4	288
HLD	88	192	5	288
HLD	89	288	2	288
HLD	89	288	3	288
TAP	91	96	2
TAP	91	96	3
TAP	92	0	0
TAP	92	0	1
TAP	92	288	6
TAP	92	288	7
HLD	93	192	4	192
HLD	93	192	5	192
TAP	94	288	2
TAP	94	288	3
TAP	95	192	3
TAP	95	288	4
TAP	96	0	3
TAP	96	96	4
TAP	96	288	4
TAP	96	288	5
TAP	97	192	2
TAP	97	192	3
TAP	98	96	3
TAP	98	96	5
TAP	99	0	2
TAP	99	0	4
TAP	99	288	3
TAP	100	0	3
TAP	100	96	3
TAP	100	192	4
TAP	100	288	4
TAP	101	0	4
TAP	101	96	3
HLD	102	0	2	192
TAP	103	0	0
TAP	103	0	1
TAP	103	288	6
TAP	103	288	7
BRK	104	192	0
BRK	104	192	7
BRK	105	288	0
BRK	105	288	1
BRK	107	0	6
BRK	107	0	7
TAP	107	288	0
TAP	107	288	7
HLD	108	192	0	288
BRK	109	96	7
HLD	110	0	6	144
TAP	110	288	6
TAP	111	0	6
HLD	111	96	5	144
TAP	112	0	5
TAP	112	96	5
TAP	112	288	3
TAP	112	288	4
TAP	113	192	2
TAP	113	192	5
TAP	114	96	1
TAP	114	96	6
HLD	115	0	0	240
HLD	115	0	7	240
TAP	116	0	0
TAP	116	96	0
TAP	116	192	1
TAP	116	192	7
TAP	117	0	7
TAP	117	96	7
TAP	117	192	0
TAP	117	192	6
TAP	118	0	5
TAP	118	96	5
TAP	118	192	3
TAP	118	288	3
HLD	119	0	4	192
BRK	119	192	3
HLD	120	0	3	144
HLD	120	0	5	144
TAP	120	288	3
TAP	121	0	3
HLD	121	96	2	144
HLD	121	96	4	144
TAP	122	0	4
TAP	122	96	4
TAP	122	288	2
TAP	123	0	2
HLD	123	192	2	192
HLD	123	192	3	192
TAP	124	192	5
TAP	124	288	5
HLD	125	96	4	192
HLD	125	96	5	192
HLD	126	96	3	768
HLD	126	96	6	768
STR	128	288	4
SI_	128	288	4	96	792	1
STR	128	288	5
SI_	128	288	5	96	792	0

T_REC_TAP	135
T_REC_BRK	14
T_REC_XTP	0
T_REC_HLD	85
T_REC_XHO	0
T_REC_STR	9
T_REC_BST	0
T_REC_XST	0
T_REC_TTP	0
T_REC_THO	0
T_REC_SLD	9
T_REC_ALL	252
T_NUM_TAP	144
T_NUM_BRK	14
T_NUM_HLD	85
T_NUM_SLD	9
T_NUM_ALL	252
T_JUDGE_TAP	158
T_JUDGE_HLD	285
T_JUDGE_SLD	9
T_JUDGE_ALL	452
TTM_EACHPAIRS	58
TTM_SCR_TAP	72000
TTM_SCR_BRK	36400
TTM_SCR_HLD	85000
TTM_SCR_SLD	13500
TTM_SCR_ALL	206900
TTM_SCR_S	199350
TTM_SCR_SS	205500
TTM_RAT_ACV	10068

