VERSION	0.00.00	1.03.00
FES_MODE	0
BPM_DEF	145.000	145.000	145.000	145.000
MET_DEF	4	4
RESOLUTION	384
CLK_DEF	384
COMPATIBLE_CODE	MA2

BPM	0	0	145.000
MET	0	0	4	4

BST	2	0	1
SCL	2	0	1	96	48	4
TAP	2	0	6
TAP	2	192	1
STR	2	192	6
SCR	2	192	6	96	48	3
TAP	3	0	0
TAP	3	0	4
TAP	3	72	1
TAP	3	72	5
STR	3	144	2
SXR	3	144	2	96	96	7
STR	3	144	6
SXR	3	144	6	96	96	3
TAP	3	192	2
TAP	3	192	6
STR	4	0	0
SCR	4	0	0	96	48	3
STR	4	0	4
SUL	4	0	4	96	48	7
STR	4	192	3
SUR	4	192	3	96	48	0
STR	4	192	7
SCL	4	192	7	96	48	4
TAP	5	0	1
TAP	5	0	5
TAP	5	72	2
TAP	5	72	6
TAP	5	144	3
TAP	5	144	7
STR	5	192	3
SXR	5	192	3	96	48	2
STR	5	192	7
SXR	5	192	7	96	48	6
TAP	6	0	0
HLD	6	0	1	72
HLD	6	72	3	72
TAP	6	144	4
STR	6	192	6
SI_	6	192	6	96	48	3
STR	6	192	7
SI_	6	192	7	96	48	2
TAP	6	288	6
TAP	6	288	7
TAP	7	0	1
TAP	7	0	4
TAP	7	72	3
TAP	7	72	6
TAP	7	144	0
TAP	7	144	1
TAP	7	192	6
TAP	7	192	7
TAP	7	240	3
TAP	7	288	0
TAP	7	288	1
TAP	7	336	4
HLD	8	0	6	72
TAP	8	0	7
HLD	8	72	4	72
TAP	8	144	3
STR	8	192	0
SI_	8	192	0	96	48	5
STR	8	192	1
SI_	8	192	1	96	48	4
TAP	8	288	0
TAP	8	288	1
TAP	9	0	6
STR	9	0	7
SCR	9	0	7	96	48	2
TAP	9	96	5
TAP	9	192	3
STR	9	192	4
SCR	9	192	4	96	48	7
TAP	9	288	2
TAP	10	0	0
STR	10	0	1
SCR	10	0	1	96	48	4
TAP	10	96	7
TAP	10	192	5
STR	10	192	6
SCR	10	192	6	96	48	1
TAP	10	288	4
STR	11	0	2
SCL	11	0	2	96	192	5
STR	11	0	3
SUL	11	0	3	96	192	4
TAP	12	0	6
STR	12	0	7
SCR	12	0	7	96	48	2
TAP	12	96	3
TAP	12	192	5
TAP	12	240	4
TAP	12	288	3
TAP	12	288	6
STR	13	0	0
SCL	13	0	0	96	48	5
TAP	13	0	1
TAP	13	96	4
TAP	13	192	2
TAP	13	240	3
TAP	13	288	1
TAP	13	288	4
STR	14	0	5
SCR	14	0	5	96	48	0
STR	14	96	3
SUL	14	96	3	96	48	6
STR	14	192	4
SUR	14	192	4	96	48	1
STR	14	288	2
SCL	14	288	2	96	96	5
TAP	15	0	5
STR	15	192	3
SI_	15	192	3	96	48	0
STR	15	192	4
SI_	15	192	4	96	48	7
TAP	15	288	3
TAP	15	288	4
STR	16	0	4
SCL	16	0	4	96	48	1
TAP	16	0	5
TAP	16	96	0
TAP	16	192	6
TAP	16	240	7
TAP	16	288	0
TAP	16	288	5
TAP	17	0	2
STR	17	0	3
SCR	17	0	3	96	48	6
TAP	17	96	7
TAP	17	192	1
TAP	17	240	0
TAP	17	288	2
TAP	17	288	7
STR	18	0	4
SUR	18	0	4	96	48	0
STR	18	0	5
SCR	18	0	5	96	48	7
STR	18	192	0
SCR	18	192	0	96	48	2
STR	18	192	7
SUR	18	192	7	96	48	3
STR	19	0	3
SCR	19	0	3	96	48	6
STR	19	0	4
SCL	19	0	4	96	48	1
TAP	19	192	0
TAP	19	192	7
TAP	19	240	3
TAP	19	264	3
TAP	19	288	5
TAP	19	336	4
TAP	19	360	4
STR	20	0	2
SCR	20	0	2	96	48	5
TAP	20	96	7
TAP	20	192	1
TAP	20	240	0
TAP	20	288	2
TAP	20	288	7
STR	21	0	5
SCL	21	0	5	96	48	2
TAP	21	96	0
TAP	21	192	6
TAP	21	240	7
TAP	21	288	0
TAP	21	288	5
STR	22	0	2
SCL	22	0	2	96	48	7
STR	22	96	4
SUR	22	96	4	96	48	1
STR	22	192	3
SUL	22	192	3	96	48	6
STR	22	288	5
SCR	22	288	5	96	96	2
TAP	23	0	2
TAP	23	144	0
TAP	23	144	7
STR	23	192	0
SXL	23	192	0	96	48	1
STR	23	192	7
SXR	23	192	7	96	48	6
STR	24	0	0
SUR	24	0	0	96	48	5
HLD	24	0	7	96
STR	24	192	5
SUR	24	192	5	96	48	2
HLD	24	192	6	96
STR	25	0	2
SUR	25	0	2	96	48	7
TAP	25	0	3
STR	25	96	6
SCL	25	96	6	96	48	3
STR	25	192	7
SCR	25	192	7	96	48	2
TAP	25	288	5
HLD	26	0	0	96
STR	26	0	7
SUL	26	0	7	96	48	2
HLD	26	192	1	96
STR	26	192	2
SUL	26	192	2	96	48	5
TAP	27	0	4
STR	27	0	5
SUL	27	0	5	96	48	0
STR	27	96	1
SCR	27	96	1	96	48	4
STR	27	192	0
SCL	27	192	0	96	48	5
TAP	27	288	2
TAP	28	0	0
TAP	28	0	7
TAP	28	96	1
TAP	28	120	0
TAP	28	144	1
TAP	28	168	0
TAP	28	192	1
TAP	28	240	3
TAP	28	240	4
TAP	28	288	6
STR	28	288	7
SCR	28	288	7	96	48	2
TAP	29	0	5
TAP	29	96	6
TAP	29	120	7
TAP	29	144	6
TAP	29	168	7
TAP	29	192	6
TAP	29	240	3
TAP	29	240	4
TAP	29	288	0
TAP	29	288	1
TAP	29	336	6
TAP	29	336	7
STR	30	0	3
SXR	30	0	3	96	192	0
STR	30	0	4
SXL	30	0	4	96	192	7
HLD	31	0	0	96
TAP	31	48	2
HLD	31	96	7	96
TAP	31	144	5
HLD	31	192	1	96
TAP	31	240	2
HLD	31	288	6	96
TAP	31	336	5
STR	32	0	2
SI_	32	0	2	96	48	7
TAP	32	96	3
STR	32	192	5
SI_	32	192	5	96	48	0
TAP	32	288	4
TAP	33	0	1
TAP	33	24	5
TAP	33	48	2
TAP	33	72	6
TAP	33	96	3
TAP	33	120	7
TAP	33	144	4
TAP	33	168	4
TAP	33	192	7
TAP	33	216	3
TAP	33	240	6
TAP	33	264	2
TAP	33	288	5
TAP	33	312	1
TAP	33	336	4
TAP	33	360	4
BST	34	0	0
SI_	34	0	0	96	48	4
TAP	34	72	0
TAP	34	72	4
TAP	34	144	6
STR	34	192	3
SI_	34	192	3	96	48	7
STR	34	192	6
SCL	34	192	6	96	48	3
TAP	34	288	3
TAP	34	288	6
STR	35	0	1
SI_	35	0	1	96	48	5
TAP	35	72	1
TAP	35	72	5
TAP	35	144	7
STR	35	192	3
SCL	35	192	3	96	48	0
STR	35	192	7
SI_	35	192	7	96	48	3
TAP	35	288	3
TAP	35	288	7
STR	36	0	5
SI_	36	0	5	96	48	1
TAP	36	72	1
TAP	36	72	5
TAP	36	144	7
STR	36	192	3
SCR	36	192	3	96	48	6
STR	36	192	7
SCR	36	192	7	96	48	2
TAP	36	288	3
TAP	36	288	7
TAP	37	0	0
TAP	37	0	1
TAP	37	72	6
TAP	37	72	7
STR	37	144	0
SXL	37	144	0	96	96	3
STR	37	144	4
SXL	37	144	4	96	96	7
TAP	37	192	0
TAP	37	192	4
STR	38	0	0
SI_	38	0	0	96	48	4
TAP	38	72	0
TAP	38	72	4
TAP	38	144	5
STR	38	192	1
SI_	38	192	1	96	48	6
STR	38	192	5
SI_	38	192	5	96	48	2
TAP	38	288	1
TAP	38	288	5
STR	39	0	0
SI_	39	0	0	96	24	2
STR	39	0	7
SI_	39	0	7	96	24	3
TAP	39	72	0
TAP	39	72	7
TAP	39	144	1
TAP	39	144	5
STR	39	192	0
SI_	39	192	0	96	24	4
STR	39	192	7
SI_	39	192	7	96	24	5
TAP	39	264	0
TAP	39	264	7
TAP	39	336	2
TAP	39	336	6
STR	40	0	0
SI_	40	0	0	96	24	3
STR	40	0	7
SI_	40	0	7	96	24	4
TAP	40	72	0
TAP	40	72	7
TAP	40	144	2
TAP	40	144	5
STR	40	192	0
SCR	40	192	0	96	48	3
STR	40	192	7
SCL	40	192	7	96	48	4
STR	40	288	0
SXL	40	288	0	96	144	3
STR	40	288	7
SXR	40	288	7	96	144	4
TAP	41	0	0
TAP	41	0	7
TAP	41	192	1
TAP	41	192	6
TAP	41	240	5
TAP	41	256	4
TAP	41	272	3
TAP	41	288	2
BRK	42	0	7
STR	43	0	0
SI_	43	0	0	96	48	4
TAP	43	96	0
TAP	43	192	3
TAP	43	216	5
TAP	43	240	3
TAP	43	264	5
TAP	43	288	2
TAP	43	312	4
TAP	43	336	2
TAP	43	360	4
HLD	44	0	1	192
TAP	44	48	3
TAP	44	96	4
TAP	44	144	5
HLD	44	192	6	192
TAP	44	240	4
TAP	44	288	3
TAP	44	336	2
HLD	45	0	1	96
TAP	45	48	7
HLD	45	96	5	192
TAP	45	144	7
TAP	45	192	0
TAP	45	240	1
HLD	45	288	2	96
TAP	45	336	0
STR	46	0	6
SCL	46	0	6	96	48	3
TAP	46	96	7
TAP	46	192	2
TAP	46	224	3
TAP	46	256	1
TAP	46	256	4
TAP	46	288	5
TAP	46	320	4
TAP	46	352	3
TAP	46	352	6
HLD	47	0	2	72
HLD	47	72	1	72
TAP	47	144	0
HLD	47	192	5	72
HLD	47	264	6	72
TAP	47	336	7
HLD	48	0	2	240
TAP	48	48	7
TAP	48	96	6
TAP	48	144	5
TAP	48	192	4
HLD	48	240	3	48
HLD	48	288	4	48
HLD	48	336	5	48
HLD	49	0	2	96
TAP	49	96	6
TAP	49	120	6
TAP	49	144	3
TAP	49	168	4
STR	49	192	1
SCR	49	192	1	96	48	4
TAP	49	336	5
HLD	50	0	5	72
HLD	50	72	6	72
TAP	50	144	7
HLD	50	192	2	72
HLD	50	264	1	72
TAP	50	336	0
TAP	50	360	7
TAP	51	0	0
TAP	51	48	6
TAP	51	72	4
TAP	51	96	5
TAP	51	144	1
TAP	51	168	3
TAP	51	192	2
TAP	51	240	7
TAP	51	264	0
TAP	51	288	7
TAP	51	336	1
TAP	51	336	6
HLD	52	0	2	96
TAP	52	0	3
TAP	52	48	3
TAP	52	96	3
TAP	52	144	5
TAP	52	168	4
TAP	52	192	5
TAP	52	240	3
TAP	52	240	6
TAP	52	288	2
TAP	52	288	7
TAP	52	336	0
TAP	52	336	1
TAP	53	0	4
HLD	53	0	5	96
TAP	53	48	4
TAP	53	96	4
TAP	53	144	2
TAP	53	168	3
TAP	53	192	2
TAP	53	240	1
TAP	53	240	4
TAP	53	288	0
TAP	53	288	5
TAP	53	336	6
TAP	53	336	7
TAP	54	0	0
HLD	54	0	1	96
TAP	54	48	0
TAP	54	96	0
TAP	54	144	6
TAP	54	168	7
TAP	54	192	6
TAP	54	240	0
TAP	54	240	5
TAP	54	288	1
TAP	54	288	4
TAP	54	336	2
TAP	54	336	3
HLD	55	0	6	96
TAP	55	0	7
TAP	55	48	7
TAP	55	96	7
TAP	55	144	1
TAP	55	168	0
TAP	55	192	1
TAP	55	240	2
TAP	55	240	7
TAP	55	288	3
TAP	55	288	6
TAP	55	336	4
TAP	55	336	5
TAP	56	0	1
TAP	56	24	3
TAP	56	48	1
TAP	56	72	3
TAP	56	96	2
TAP	56	120	4
TAP	56	144	2
TAP	56	168	4
TAP	56	192	3
TAP	56	216	5
TAP	56	240	3
TAP	56	264	5
TAP	56	288	4
TAP	56	312	6
TAP	56	336	4
TAP	56	360	6
TAP	57	0	0
TAP	57	24	7
TAP	57	48	1
TAP	57	72	6
TAP	57	96	2
TAP	57	120	5
TAP	57	144	3
TAP	57	168	4
TAP	57	192	2
TAP	57	192	5
TAP	57	240	1
TAP	57	240	6
STR	57	288	0
SCR	57	288	0	96	288	7
STR	57	288	7
SCL	57	288	7	96	288	0
TAP	57	336	3
TAP	57	336	4
TAP	58	336	1
TAP	58	360	3
TAP	59	0	2
TAP	59	48	6
TAP	59	72	4
TAP	59	96	5
TAP	59	144	0
TAP	59	168	3
TAP	59	192	2
TAP	59	240	7
TAP	59	264	4
TAP	59	288	5
TAP	59	336	3
TAP	59	336	4
BRK	60	0	1
BRK	60	0	6
TAP	60	192	2
TAP	60	192	5
TAP	61	0	2
TAP	61	0	3
TAP	61	72	4
TAP	61	72	5
STR	61	144	3
SCL	61	144	3	96	96	0
STR	61	144	4
SCR	61	144	4	96	96	7
TAP	61	192	3
TAP	61	192	4
TAP	62	0	2
TAP	62	0	5
TAP	62	144	5
TAP	62	160	4
TAP	62	176	3
STR	62	192	2
SCR	62	192	2	96	48	5
TAP	62	288	2
TAP	63	0	5
TAP	63	64	4
TAP	63	64	6
TAP	63	128	3
TAP	63	128	7
TAP	63	192	2
TAP	63	256	1
TAP	63	256	3
TAP	63	320	0
TAP	63	320	4
STR	64	0	7
SI_	64	0	7	96	48	3
TAP	64	72	3
TAP	64	72	7
TAP	64	144	1
STR	64	192	1
SCR	64	192	1	96	48	4
STR	64	192	4
SI_	64	192	4	96	48	0
TAP	64	288	1
TAP	64	288	4
STR	65	0	6
SI_	65	0	6	96	48	2
TAP	65	72	2
TAP	65	72	6
TAP	65	144	0
STR	65	192	0
SI_	65	192	0	96	48	4
STR	65	192	4
SCR	65	192	4	96	48	7
TAP	65	288	0
TAP	65	288	4
STR	66	0	2
SI_	66	0	2	96	48	6
TAP	66	72	2
TAP	66	72	6
TAP	66	144	0
STR	66	192	0
SCL	66	192	0	96	48	5
STR	66	192	4
SCL	66	192	4	96	48	1
TAP	66	288	0
TAP	66	288	4
TAP	67	0	0
TAP	67	0	7
TAP	67	72	3
TAP	67	96	4
TAP	67	144	2
TAP	67	144	3
TAP	67	192	4
TAP	67	192	5
TAP	67	240	0
TAP	67	240	7
TAP	67	256	1
TAP	67	256	6
TAP	67	272	2
TAP	67	272	5
TAP	67	288	3
TAP	67	288	4
STR	68	0	0
SI_	68	0	0	96	48	4
BRK	68	0	7
TAP	68	48	1
TAP	68	96	0
STR	68	96	7
SI_	68	96	7	96	48	3
TAP	68	144	6
STR	68	192	1
SI_	68	192	1	96	48	4
TAP	68	192	7
TAP	68	240	0
TAP	68	288	1
STR	68	288	6
SI_	68	288	6	96	48	3
TAP	68	336	7
STR	69	0	0
SCR	69	0	0	96	32	2
TAP	69	0	6
TAP	69	48	2
TAP	69	96	0
STR	69	96	7
SI_	69	96	7	96	48	3
TAP	69	144	5
STR	69	192	0
SI_	69	192	0	96	48	4
TAP	69	192	7
TAP	69	240	2
TAP	69	288	0
STR	69	288	7
SCL	69	288	7	96	32	5
TAP	69	336	5
STR	70	0	1
SCR	70	0	1	96	48	4
TAP	70	0	7
TAP	70	48	0
TAP	70	96	1
STR	70	96	7
SI_	70	96	7	96	48	3
TAP	70	144	6
STR	70	192	1
SI_	70	192	1	96	48	5
TAP	70	192	7
TAP	70	240	0
TAP	70	288	1
STR	70	288	6
SCL	70	288	6	96	48	3
TAP	70	336	7
STR	71	0	0
SI_	71	0	0	96	48	4
TAP	71	0	6
TAP	71	48	2
TAP	71	96	0
STR	71	96	6
SI_	71	96	6	96	48	2
TAP	71	144	7
BST	71	192	0
SF_	71	192	0	96	48	4
TAP	71	192	6
STR	72	0	7
SI_	72	0	7	96	48	3
TAP	72	72	3
TAP	72	72	7
TAP	72	144	2
STR	72	192	2
SI_	72	192	2	96	48	5
STR	72	192	6
SI_	72	192	6	96	48	1
TAP	72	288	2
TAP	72	288	6
TAP	73	0	0
BRK	73	0	4
BRK	73	64	3
TAP	73	64	7
BRK	73	128	2
TAP	73	128	6
BRK	73	192	1
STR	73	192	5
SCL	73	192	5	96	48	2
BRK	73	256	0
BRK	73	320	7
STR	74	0	3
SI_	74	0	3	96	24	0
STR	74	0	4
SI_	74	0	4	96	24	7
TAP	74	72	3
TAP	74	72	4
TAP	74	144	2
TAP	74	144	5
STR	74	192	0
SCR	74	192	0	96	48	3
STR	74	192	7
SCL	74	192	7	96	48	4
STR	74	288	0
SXL	74	288	0	96	144	3
STR	74	288	7
SXR	74	288	7	96	144	4
TAP	75	0	0
TAP	75	0	7
HLD	75	240	3	96
HLD	75	240	4	96
HLD	76	0	3	96
STR	76	0	4
SCR	76	0	4	96	48	7
STR	76	192	3
SCL	76	192	3	96	48	0
HLD	76	192	7	96
STR	77	0	7
SI_	77	0	7	96	48	3
TAP	77	96	7
TAP	77	192	4
TAP	77	216	2
TAP	77	240	4
TAP	77	264	2
TAP	77	288	5
TAP	77	312	3
TAP	77	336	5
TAP	77	360	3
STR	78	0	6
SCL	78	0	6	96	48	3
HLD	78	96	1	96
TAP	78	192	6
TAP	78	240	4
TAP	78	264	3
TAP	78	288	4
TAP	78	336	2
TAP	78	336	5
TAP	79	0	1
STR	79	0	6
SCL	79	0	6	96	96	3
STR	79	96	3
SCL	79	96	3	96	96	0
STR	79	192	0
SCL	79	192	0	96	96	5
TAP	79	288	5
HLD	80	0	3	192
TAP	80	96	6
TAP	80	144	5
HLD	80	192	4	96
TAP	80	240	2
TAP	80	288	3
TAP	81	0	4
TAP	81	24	3
TAP	81	48	4
TAP	81	72	3
TAP	81	96	4
TAP	81	144	0
TAP	81	168	7
TAP	81	192	0
TAP	81	240	1
TAP	81	240	7
TAP	81	288	2
TAP	81	288	6
TAP	81	336	3
TAP	81	336	5
HLD	82	0	4	816
TAP	82	72	0
TAP	82	144	6
TAP	82	216	2
TAP	82	312	5
TAP	83	24	3
TAP	83	120	6
TAP	83	216	0
TAP	84	0	0
TAP	84	16	1
TAP	84	32	2
HLD	84	48	3	192
TAP	84	192	0
TAP	84	208	7
TAP	84	224	6
HLD	84	240	5	192
TAP	85	0	7
TAP	85	16	0
TAP	85	32	1
HLD	85	48	2	192
TAP	85	192	7
TAP	85	208	6
TAP	85	224	5
HLD	85	240	4	144
BRK	86	0	0

T_REC_TAP	481
T_REC_BRK	11
T_REC_XTP	0
T_REC_HLD	46
T_REC_XHO	0
T_REC_STR	129
T_REC_BST	3
T_REC_XST	0
T_REC_TTP	0
T_REC_THO	0
T_REC_SLD	132
T_REC_ALL	802
T_NUM_TAP	610
T_NUM_BRK	14
T_NUM_HLD	46
T_NUM_SLD	132
T_NUM_ALL	802
T_JUDGE_TAP	624
T_JUDGE_HLD	122
T_JUDGE_SLD	132
T_JUDGE_ALL	878
TTM_EACHPAIRS	175
TTM_SCR_TAP	305000
TTM_SCR_BRK	36400
TTM_SCR_HLD	46000
TTM_SCR_SLD	198000
TTM_SCR_ALL	585400
TTM_SCR_S	566500
TTM_SCR_SS	584000
TTM_RAT_ACV	10023

