VERSION	0.00.00	1.03.00
FES_MODE	0
BPM_DEF	145.000	145.000	145.000	145.000
MET_DEF	4	4
RESOLUTION	384
CLK_DEF	384
COMPATIBLE_CODE	MA2

BPM	0	0	145.000
MET	0	0	4	4

STR	2	0	0
SI_	2	0	0	96	96	4
HLD	2	0	7	192
HLD	3	0	0	192
STR	3	0	7
SI_	3	0	7	96	96	3
HLD	4	0	0	192
STR	4	0	1
SI_	4	0	1	96	96	5
STR	5	0	6
SI_	5	0	6	96	96	2
HLD	5	0	7	192
STR	6	0	3
SI_	6	0	3	96	96	7
HLD	6	0	4	192
HLD	7	0	3	192
STR	7	0	4
SI_	7	0	4	96	96	0
TAP	8	0	2
TAP	8	0	5
TAP	8	96	2
TAP	8	96	5
TAP	8	192	1
TAP	8	192	6
TAP	8	288	1
TAP	8	288	6
BST	9	0	0
SCR	9	0	0	96	192	3
BST	9	0	7
SCL	9	0	7	96	192	4
STR	10	0	7
SI_	10	0	7	96	48	3
STR	10	192	0
SI_	10	192	0	96	48	4
STR	11	0	6
SCR	11	0	6	96	192	4
TAP	12	0	0
STR	12	0	1
SI_	12	0	1	96	48	3
TAP	12	96	7
TAP	12	192	0
STR	12	192	1
SI_	12	192	1	96	48	3
TAP	12	288	7
STR	13	0	6
SI_	13	0	6	96	48	4
TAP	13	0	7
TAP	13	96	0
STR	13	192	6
SI_	13	192	6	96	48	4
TAP	13	192	7
TAP	13	288	0
HLD	14	0	2	96
HLD	14	96	1	96
HLD	14	192	0	96
HLD	14	288	7	96
STR	15	0	6
SCL	15	0	6	96	96	1
TAP	15	288	1
TAP	15	288	6
STR	16	0	6
SI_	16	0	6	96	48	4
TAP	16	0	7
TAP	16	96	0
STR	16	192	6
SI_	16	192	6	96	48	4
TAP	16	192	7
TAP	16	288	0
TAP	17	0	0
STR	17	0	1
SI_	17	0	1	96	48	3
TAP	17	96	7
TAP	17	192	0
STR	17	192	1
SI_	17	192	1	96	48	3
TAP	17	288	7
HLD	18	0	5	96
HLD	18	96	6	96
HLD	18	192	7	96
HLD	18	288	0	96
STR	19	0	1
SCR	19	0	1	96	96	6
TAP	19	288	1
TAP	19	288	6
TAP	20	0	0
STR	20	0	1
SI_	20	0	1	96	48	4
TAP	20	96	7
TAP	20	192	0
STR	20	192	1
SI_	20	192	1	96	48	4
TAP	20	288	7
STR	21	0	6
SI_	21	0	6	96	48	3
TAP	21	0	7
TAP	21	96	0
STR	21	192	6
SI_	21	192	6	96	48	3
TAP	21	192	7
TAP	21	288	0
HLD	22	0	2	96
HLD	22	96	1	96
HLD	22	192	0	96
HLD	22	288	7	96
STR	23	0	6
SCL	23	0	6	96	96	1
TAP	23	288	1
TAP	23	288	6
STR	24	0	0
SCR	24	0	0	96	96	4
TAP	24	144	6
TAP	24	192	6
TAP	24	288	3
TAP	24	288	4
STR	25	0	7
SCL	25	0	7	96	96	3
TAP	25	144	1
TAP	25	192	1
TAP	25	288	3
TAP	25	288	4
STR	26	0	1
SCR	26	0	1	96	96	5
TAP	26	144	7
TAP	26	192	7
TAP	26	288	3
TAP	26	288	4
STR	27	0	6
SCL	27	0	6	96	96	2
TAP	27	144	0
TAP	27	192	0
TAP	27	288	3
TAP	27	288	4
TAP	28	0	2
TAP	28	0	4
TAP	28	96	0
TAP	28	192	3
TAP	28	192	5
TAP	28	288	7
TAP	29	0	0
TAP	29	0	2
TAP	29	96	6
TAP	29	192	5
TAP	29	192	7
TAP	29	288	1
STR	30	0	0
SUR	30	0	0	96	96	7
TAP	30	0	7
TAP	30	336	0
TAP	30	336	7
TAP	31	0	0
STR	31	0	7
SCL	31	0	7	96	192	0
TAP	32	0	6
STR	32	0	7
SI_	32	0	7	96	48	4
STR	32	192	0
SI_	32	192	0	96	48	3
TAP	32	192	1
TAP	33	0	6
TAP	33	0	7
TAP	33	96	0
TAP	33	96	1
TAP	33	192	2
TAP	33	192	3
TAP	33	288	4
TAP	33	288	5
TAP	34	0	0
HLD	34	0	7	72
HLD	34	72	6	72
TAP	34	144	5
STR	34	192	5
SI_	34	192	5	96	48	2
TAP	34	288	1
TAP	35	0	0
HLD	35	0	1	72
HLD	35	72	2	72
TAP	35	144	3
TAP	35	192	4
TAP	35	240	4
TAP	35	288	3
TAP	35	288	5
HLD	36	0	0	72
TAP	36	0	7
HLD	36	72	1	72
TAP	36	144	2
STR	36	192	2
SI_	36	192	2	96	48	5
TAP	36	288	6
HLD	37	0	6	72
TAP	37	0	7
HLD	37	72	5	72
TAP	37	144	4
TAP	37	192	3
TAP	37	240	3
TAP	37	288	2
TAP	37	288	4
TAP	38	0	0
HLD	38	0	6	72
HLD	38	72	5	72
TAP	38	144	4
STR	38	192	4
SI_	38	192	4	96	48	0
TAP	38	288	1
STR	39	0	6
SI_	39	0	6	96	48	3
STR	39	0	7
SI_	39	0	7	96	48	3
STR	39	192	0
SI_	39	192	0	96	48	4
STR	39	192	1
SI_	39	192	1	96	48	4
HLD	40	0	1	72
TAP	40	0	7
HLD	40	72	2	72
TAP	40	144	3
STR	40	192	3
SI_	40	192	3	96	48	7
TAP	40	288	6
STR	41	0	0
SXL	41	0	0	96	192	4
SXR	41	0	0	96	192	4
HLD	42	0	1	288
HLD	42	0	6	672
TAP	43	0	0
TAP	43	96	0
TAP	43	192	7
TAP	43	240	7
TAP	43	288	7
TAP	44	0	3
TAP	44	0	4
TAP	44	96	0
TAP	44	192	2
TAP	44	240	2
TAP	44	288	1
TAP	44	288	3
TAP	45	0	3
TAP	45	0	4
TAP	45	96	7
TAP	45	192	5
TAP	45	240	5
TAP	45	288	4
TAP	45	288	6
TAP	46	0	2
TAP	46	0	4
TAP	46	96	0
TAP	46	192	2
TAP	46	240	2
TAP	46	288	1
TAP	46	288	3
HLD	47	0	5	96
HLD	47	96	4	96
HLD	47	192	3	96
TAP	47	288	2
HLD	48	0	6	96
TAP	48	96	4
TAP	48	192	3
TAP	48	240	2
TAP	48	240	4
TAP	48	288	1
TAP	48	288	5
HLD	49	0	1	96
TAP	49	96	3
TAP	49	192	4
TAP	49	240	3
TAP	49	240	5
TAP	49	288	2
TAP	49	288	6
HLD	50	0	7	96
TAP	50	96	5
TAP	50	192	3
TAP	50	240	2
TAP	50	240	4
TAP	50	288	1
TAP	50	288	5
HLD	51	0	2	96
HLD	51	96	3	96
HLD	51	192	4	96
TAP	51	288	5
TAP	52	0	1
TAP	52	0	3
TAP	52	96	2
TAP	52	144	2
TAP	52	192	3
TAP	52	240	3
TAP	52	288	1
TAP	52	288	4
TAP	53	0	4
TAP	53	0	6
TAP	53	96	5
TAP	53	144	5
TAP	53	192	4
TAP	53	240	4
TAP	53	288	3
TAP	53	288	6
TAP	54	0	1
TAP	54	0	3
TAP	54	96	0
TAP	54	144	0
TAP	54	192	7
TAP	54	240	7
TAP	54	288	2
TAP	54	288	6
TAP	55	0	4
TAP	55	0	6
TAP	55	96	7
TAP	55	144	7
TAP	55	192	0
TAP	55	240	0
TAP	55	288	1
TAP	55	288	5
TAP	56	0	0
TAP	56	48	0
TAP	56	96	1
TAP	56	144	1
TAP	56	192	2
TAP	56	240	2
TAP	56	288	3
TAP	56	336	3
TAP	57	0	4
TAP	57	48	4
TAP	57	96	5
TAP	57	144	5
TAP	57	192	6
TAP	57	240	6
TAP	57	288	7
TAP	57	336	7
HLD	58	0	0	288
TAP	58	192	2
TAP	58	288	2
TAP	59	0	6
TAP	59	0	7
TAP	59	96	4
TAP	59	96	5
TAP	59	192	2
TAP	59	192	3
TAP	59	288	0
TAP	59	288	1
STR	60	0	6
SV_	60	0	6	96	96	4
STR	60	0	7
SLR	60	0	7	96	96	3
STR	61	0	0
SLL	61	0	0	96	96	4
STR	61	0	1
SV_	61	0	1	96	96	3
STR	62	0	4
SLL	62	0	4	96	96	0
STR	62	0	5
SV_	62	0	5	96	96	7
STR	63	0	2
SV_	63	0	2	96	96	0
STR	63	0	3
SLR	63	0	3	96	96	7
HLD	64	0	2	96
TAP	64	96	3
TAP	64	192	1
TAP	64	192	4
TAP	64	288	7
HLD	65	0	5	96
TAP	65	96	4
TAP	65	192	3
TAP	65	192	6
TAP	65	288	0
HLD	66	0	3	96
TAP	66	96	4
TAP	66	192	2
TAP	66	192	5
TAP	66	288	1
TAP	66	288	6
BST	67	0	0
SXL	67	0	0	96	192	3
BST	67	0	7
SXR	67	0	7	96	192	4
STR	68	0	1
SI_	68	0	1	96	48	4
STR	68	96	0
SI_	68	96	0	96	48	5
STR	68	192	1
SI_	68	192	1	96	48	4
STR	68	288	0
SI_	68	288	0	96	48	5
STR	69	0	1
SI_	69	0	1	96	48	4
STR	69	96	0
SI_	69	96	0	96	48	5
STR	69	192	1
SI_	69	192	1	96	48	4
BRK	69	288	0
STR	70	0	6
SI_	70	0	6	96	48	3
STR	70	96	7
SI_	70	96	7	96	48	2
STR	70	192	6
SI_	70	192	6	96	48	3
STR	70	288	7
SI_	70	288	7	96	48	2
STR	71	0	6
SI_	71	0	6	96	48	3
STR	71	96	7
SI_	71	96	7	96	48	2
STR	71	192	6
SI_	71	192	6	96	48	3
BRK	71	288	7
STR	72	0	0
SI_	72	0	0	96	48	4
STR	72	96	7
SI_	72	96	7	96	48	3
STR	72	192	0
SI_	72	192	0	96	48	4
STR	72	288	7
SI_	72	288	7	96	48	3
BRK	73	0	0
BRK	73	64	0
BRK	73	128	0
BRK	73	192	7
BRK	73	256	7
BRK	73	320	7
TAP	74	0	0
TAP	74	0	1
TAP	74	96	2
TAP	74	96	3
TAP	74	192	4
TAP	74	192	5
TAP	74	288	6
TAP	74	288	7
BST	75	0	0
SF_	75	0	0	96	192	4
TAP	75	0	1
HLD	76	0	1	672
HLD	76	0	6	288
TAP	77	0	7
TAP	77	96	7
TAP	77	192	0
TAP	77	240	0
TAP	77	288	0
TAP	78	0	3
TAP	78	0	7
TAP	78	96	2
TAP	78	96	6
TAP	78	192	1
TAP	78	192	5
TAP	78	288	0
TAP	78	288	4
TAP	79	0	3
TAP	79	0	7
TAP	79	96	0
TAP	79	96	4
TAP	79	192	1
TAP	79	192	5
TAP	79	288	2
TAP	79	288	6
HLD	80	0	7	72
HLD	80	72	6	72
TAP	80	144	5
STR	80	192	5
SCR	80	192	5	96	192	2
TAP	81	192	1
TAP	81	192	4
TAP	81	288	0
TAP	81	288	5
STR	82	0	6
SCL	82	0	6	96	528	7
STR	82	0	7
SCR	82	0	7	96	528	6
TAP	84	0	0
TAP	84	0	1
TAP	84	192	6
TAP	84	192	7
TAP	85	0	0
TAP	85	0	1
TAP	85	192	6
TAP	85	192	7
BRK	86	0	0
BST	86	0	7
SF_	86	0	7	96	480	3

T_REC_TAP	264
T_REC_BRK	9
T_REC_XTP	0
T_REC_HLD	49
T_REC_XHO	0
T_REC_STR	70
T_REC_BST	6
T_REC_XST	0
T_REC_TTP	0
T_REC_THO	0
T_REC_SLD	77
T_REC_ALL	475
T_NUM_TAP	334
T_NUM_BRK	15
T_NUM_HLD	49
T_NUM_SLD	77
T_NUM_ALL	475
T_JUDGE_TAP	349
T_JUDGE_HLD	146
T_JUDGE_SLD	77
T_JUDGE_ALL	572
TTM_EACHPAIRS	109
TTM_SCR_TAP	167000
TTM_SCR_BRK	39000
TTM_SCR_HLD	49000
TTM_SCR_SLD	115500
TTM_SCR_ALL	370500
TTM_SCR_S	357950
TTM_SCR_SS	369000
TTM_RAT_ACV	10040

