VERSION	0.00.00	1.03.00
FES_MODE	0
BPM_DEF	145.000	145.000	145.000	145.000
MET_DEF	4	4
RESOLUTION	384
CLK_DEF	384
COMPATIBLE_CODE	MA2

BPM	0	0	145.000
MET	0	0	4	4

HLD	2	0	3	192
HLD	2	192	4	192
HLD	3	0	5	192
TAP	3	192	6
HLD	4	0	4	192
HLD	4	192	3	192
HLD	5	0	2	192
TAP	5	192	1
HLD	6	0	7	192
HLD	6	192	6	192
HLD	7	0	5	192
TAP	7	192	4
HLD	8	0	0	192
HLD	8	192	1	192
STR	9	0	2
SI_	9	0	2	96	192	6
STR	10	0	5
SI_	10	0	5	96	192	1
STR	11	0	2
SI_	11	0	2	96	192	7
STR	11	0	5
SI_	11	0	5	96	192	0
TAP	12	0	2
TAP	12	96	2
TAP	12	192	1
TAP	12	192	3
TAP	13	0	5
TAP	13	96	5
TAP	13	192	4
TAP	13	192	6
TAP	14	0	2
TAP	14	96	3
TAP	14	192	4
TAP	14	288	5
TAP	15	0	6
STR	15	0	7
SI_	15	0	7	96	192	3
TAP	16	0	5
TAP	16	96	5
TAP	16	192	4
TAP	16	192	6
TAP	17	0	2
TAP	17	96	2
TAP	17	192	1
TAP	17	192	3
TAP	18	0	5
TAP	18	96	4
TAP	18	192	3
TAP	18	288	2
STR	19	0	0
SI_	19	0	0	96	192	4
TAP	19	0	1
TAP	20	0	2
TAP	20	96	2
TAP	20	192	1
TAP	20	192	3
TAP	21	0	5
TAP	21	96	5
TAP	21	192	4
TAP	21	192	6
TAP	22	0	2
TAP	22	96	3
TAP	22	192	4
TAP	22	288	5
TAP	23	0	6
STR	23	0	7
SI_	23	0	7	96	192	3
HLD	24	0	2	96
HLD	24	0	3	96
TAP	24	192	3
TAP	24	192	4
HLD	25	0	4	96
HLD	25	0	5	96
TAP	25	192	3
TAP	25	192	4
HLD	26	0	2	96
HLD	26	0	3	96
TAP	26	192	1
TAP	26	192	4
HLD	27	0	4	96
HLD	27	0	5	96
TAP	27	192	3
TAP	27	192	6
TAP	28	0	6
TAP	28	96	6
TAP	28	96	7
TAP	28	192	6
TAP	28	288	5
TAP	28	288	7
TAP	29	0	1
TAP	29	96	0
TAP	29	96	1
TAP	29	192	1
TAP	29	288	0
TAP	29	288	2
STR	30	0	2
SLL	30	0	2	96	192	3
STR	31	0	5
SLR	31	0	5	96	192	4
HLD	32	0	4	96
HLD	32	0	5	96
HLD	32	192	2	96
HLD	32	192	3	96
TAP	33	0	3
TAP	33	0	4
TAP	33	96	2
TAP	33	96	5
TAP	33	192	1
TAP	33	192	6
BRK	33	288	0
BRK	33	288	7
HLD	34	0	1	96
TAP	34	96	0
TAP	34	192	2
TAP	34	192	7
TAP	34	288	2
TAP	34	288	7
TAP	35	0	3
TAP	35	96	4
TAP	35	192	5
TAP	35	192	6
HLD	36	0	6	96
TAP	36	96	7
TAP	36	192	0
TAP	36	192	5
TAP	36	288	0
TAP	36	288	5
TAP	37	0	4
TAP	37	96	3
TAP	37	192	1
TAP	37	192	2
HLD	38	0	1	96
TAP	38	96	0
TAP	38	192	2
TAP	38	192	7
TAP	38	288	2
TAP	38	288	7
HLD	39	0	4	96
HLD	39	0	6	96
HLD	39	192	1	96
HLD	39	192	3	96
HLD	40	0	6	96
TAP	40	96	7
TAP	40	192	0
TAP	40	192	5
TAP	40	288	0
TAP	40	288	5
STR	41	0	3
SI_	41	0	3	96	192	0
STR	41	0	4
SI_	41	0	4	96	192	7
HLD	42	0	1	288
HLD	42	0	6	288
TAP	43	0	1
TAP	43	0	6
TAP	43	96	1
TAP	43	96	6
TAP	43	192	2
TAP	43	192	5
TAP	43	288	3
TAP	43	288	4
HLD	44	0	2	96
TAP	44	96	3
HLD	44	192	5	96
TAP	44	288	4
HLD	45	0	2	96
TAP	45	96	3
TAP	45	192	3
TAP	45	192	4
HLD	46	0	5	96
TAP	46	96	4
HLD	46	192	2	96
TAP	46	288	3
HLD	47	0	5	96
TAP	47	96	4
TAP	47	192	3
TAP	47	192	4
HLD	48	0	1	96
TAP	48	96	3
HLD	48	192	6	96
TAP	48	288	4
HLD	49	0	1	96
TAP	49	96	3
TAP	49	192	3
TAP	49	192	4
HLD	50	0	6	96
TAP	50	96	4
HLD	50	192	1	96
TAP	50	288	3
HLD	51	0	6	96
TAP	51	96	4
TAP	51	192	3
TAP	51	192	4
HLD	52	0	2	96
TAP	52	96	0
HLD	52	192	5	96
TAP	52	288	7
HLD	53	0	2	96
TAP	53	96	0
TAP	53	192	0
TAP	53	192	7
HLD	54	0	5	96
TAP	54	96	7
HLD	54	192	2	96
TAP	54	288	0
HLD	55	0	5	96
TAP	55	96	7
TAP	55	192	0
TAP	55	192	7
HLD	56	0	2	96
TAP	56	96	1
HLD	56	192	5	96
TAP	56	288	6
HLD	57	0	2	96
TAP	57	96	1
TAP	57	192	0
TAP	57	192	7
HLD	58	0	5	96
TAP	58	96	6
HLD	58	192	2	96
TAP	58	288	1
HLD	59	0	5	96
TAP	59	96	6
TAP	59	192	0
TAP	59	192	7
BRK	59	288	0
BRK	59	288	7
HLD	60	0	1	192
TAP	60	0	6
HLD	60	192	2	192
HLD	61	0	3	192
TAP	61	192	4
TAP	61	288	5
TAP	62	0	1
HLD	62	0	6	192
HLD	62	192	5	192
HLD	63	0	4	192
TAP	63	192	3
TAP	63	288	2
TAP	64	0	1
TAP	64	96	0
TAP	64	96	2
TAP	64	192	6
TAP	64	288	5
TAP	64	288	7
TAP	65	0	1
TAP	65	96	0
TAP	65	96	2
TAP	65	192	6
TAP	65	288	5
TAP	65	288	7
STR	66	0	0
SCR	66	0	0	96	192	3
STR	66	0	7
SCL	66	0	7	96	192	4
TAP	67	0	2
TAP	67	0	5
TAP	67	96	1
TAP	67	96	6
TAP	67	192	0
TAP	67	192	7
BRK	67	288	0
BRK	67	288	7
HLD	68	0	0	96
HLD	68	96	1	96
HLD	68	192	2	96
HLD	68	288	3	96
HLD	69	0	4	96
HLD	69	96	5	96
HLD	69	192	6	96
BRK	69	288	7
HLD	70	0	7	96
HLD	70	96	6	96
HLD	70	192	5	96
HLD	70	288	4	96
HLD	71	0	3	96
HLD	71	96	2	96
HLD	71	192	1	96
BRK	71	288	0
HLD	72	0	0	96
HLD	72	96	1	96
HLD	72	192	2	96
TAP	72	288	3
HLD	73	0	4	96
HLD	73	0	5	96
HLD	73	192	2	96
HLD	73	192	3	96
HLD	74	0	7	96
HLD	74	96	6	96
HLD	74	192	5	96
TAP	74	288	4
STR	75	0	3
SI_	75	0	3	96	192	0
STR	75	0	4
SI_	75	0	4	96	192	7
HLD	76	0	1	288
HLD	76	0	6	288
TAP	77	0	1
TAP	77	0	6
TAP	77	96	1
TAP	77	96	6
TAP	77	192	2
TAP	77	192	5
TAP	77	288	3
TAP	77	288	4
HLD	78	0	2	96
TAP	78	96	3
TAP	78	192	2
TAP	78	192	3
HLD	79	0	5	96
TAP	79	96	4
TAP	79	192	4
TAP	79	192	5
HLD	80	0	2	96
TAP	80	96	3
TAP	80	192	1
TAP	80	192	4
HLD	81	0	5	96
TAP	81	96	4
TAP	81	192	3
TAP	81	192	6
STR	82	0	0
SXL	82	0	0	96	576	3
STR	82	0	7
SXR	82	0	7	96	576	4
HLD	84	0	3	384
HLD	84	0	4	384
TAP	85	192	2
TAP	85	192	5
BRK	86	0	1
BRK	86	0	6

T_REC_TAP	192
T_REC_BRK	10
T_REC_XTP	0
T_REC_HLD	95
T_REC_XHO	0
T_REC_STR	17
T_REC_BST	0
T_REC_XST	0
T_REC_TTP	0
T_REC_THO	0
T_REC_SLD	17
T_REC_ALL	331
T_NUM_TAP	209
T_NUM_BRK	10
T_NUM_HLD	95
T_NUM_SLD	17
T_NUM_ALL	331
T_JUDGE_TAP	219
T_JUDGE_HLD	252
T_JUDGE_SLD	17
T_JUDGE_ALL	488
TTM_EACHPAIRS	82
TTM_SCR_TAP	104500
TTM_SCR_BRK	26000
TTM_SCR_HLD	95000
TTM_SCR_SLD	25500
TTM_SCR_ALL	251000
TTM_SCR_S	242500
TTM_SCR_SS	250000
TTM_RAT_ACV	10040

