VERSION	0.00.00	1.03.00
FES_MODE	0
BPM_DEF	145.000	145.000	145.000	145.000
MET_DEF	4	4
RESOLUTION	384
CLK_DEF	384
COMPATIBLE_CODE	MA2

BPM	0	0	145.000
MET	0	0	4	4

HLD	2	0	3	384
HLD	4	0	4	384
TAP	6	0	3
TAP	6	192	3
TAP	7	0	2
TAP	7	192	2
TAP	8	0	1
TAP	8	192	1
STR	9	0	0
SI_	9	0	0	96	288	4
HLD	11	0	7	192
TAP	12	0	7
TAP	12	192	7
TAP	13	0	6
TAP	13	192	6
TAP	14	0	5
TAP	14	96	5
TAP	14	192	5
HLD	15	0	4	192
TAP	16	0	3
TAP	16	192	3
TAP	17	0	2
TAP	17	192	2
TAP	18	0	1
TAP	18	96	1
TAP	18	192	1
HLD	19	0	0	192
TAP	20	0	0
TAP	20	192	0
TAP	21	0	1
TAP	21	192	1
TAP	22	0	2
TAP	22	96	2
TAP	22	192	2
HLD	23	0	3	192
TAP	24	0	4
TAP	24	0	5
TAP	24	192	4
TAP	24	192	5
TAP	25	0	4
TAP	25	0	5
TAP	26	0	2
TAP	26	0	3
TAP	26	192	2
TAP	26	192	3
TAP	27	0	2
TAP	27	0	3
TAP	28	0	4
TAP	28	192	4
TAP	29	0	5
TAP	29	192	5
STR	30	0	6
SI_	30	0	6	96	288	2
TAP	32	0	0
TAP	32	96	0
TAP	32	192	0
TAP	33	0	7
TAP	33	96	7
BRK	33	192	7
TAP	34	0	0
TAP	34	0	1
TAP	34	192	0
TAP	34	192	1
TAP	35	0	6
TAP	35	0	7
TAP	35	192	6
TAP	35	192	7
TAP	36	0	5
TAP	36	96	5
TAP	36	192	5
TAP	37	0	4
TAP	37	96	3
TAP	37	192	4
TAP	38	0	2
TAP	38	0	3
TAP	38	192	2
TAP	38	192	3
TAP	39	0	4
TAP	39	0	5
TAP	39	192	4
TAP	39	192	5
TAP	40	0	3
TAP	40	96	3
TAP	40	192	3
STR	41	0	2
SI_	41	0	2	96	288	7
HLD	44	0	0	192
HLD	45	0	0	192
HLD	46	0	1	192
HLD	47	0	1	192
TAP	48	0	2
TAP	48	192	2
TAP	49	0	3
TAP	49	192	3
TAP	50	0	4
TAP	50	192	4
TAP	51	0	5
TAP	51	192	5
STR	52	0	6
SI_	52	0	6	96	288	2
STR	54	0	1
SI_	54	0	1	96	288	5
TAP	56	0	6
TAP	56	192	6
TAP	57	0	7
TAP	57	192	7
HLD	58	0	0	192
HLD	58	0	7	192
HLD	59	0	1	192
HLD	59	0	6	192
BRK	60	0	6
BRK	60	0	7
TAP	60	192	6
TAP	60	192	7
TAP	61	0	0
TAP	61	0	1
TAP	61	192	0
TAP	61	192	1
TAP	62	0	2
TAP	62	96	2
TAP	62	192	2
TAP	63	0	3
TAP	63	96	4
TAP	63	192	3
TAP	64	0	4
TAP	64	0	5
TAP	64	192	4
TAP	64	192	5
TAP	65	0	2
TAP	65	0	3
TAP	65	192	2
TAP	65	192	3
TAP	66	0	4
TAP	66	96	4
TAP	66	192	5
TAP	66	288	5
HLD	67	0	6	192
HLD	67	0	7	192
TAP	68	0	0
TAP	68	0	1
TAP	68	96	0
TAP	68	96	1
TAP	68	192	0
TAP	68	192	1
TAP	69	0	6
TAP	69	0	7
TAP	69	96	6
TAP	69	96	7
TAP	69	192	6
TAP	69	192	7
TAP	70	0	5
TAP	70	96	5
TAP	70	192	4
TAP	70	288	4
TAP	71	0	3
TAP	71	96	4
TAP	71	192	3
TAP	72	0	2
TAP	72	96	2
TAP	72	192	1
TAP	72	288	1
TAP	73	0	0
TAP	73	0	7
TAP	73	96	0
TAP	73	96	7
TAP	73	192	0
TAP	73	192	7
TAP	74	0	6
TAP	74	96	6
TAP	74	192	5
TAP	74	288	5
STR	75	0	3
SI_	75	0	3	96	288	0
STR	75	0	4
SI_	75	0	4	96	288	7
TAP	78	0	0
TAP	78	96	0
TAP	78	192	0
TAP	79	0	1
TAP	79	96	1
TAP	79	192	1
TAP	80	0	2
TAP	80	96	2
TAP	80	192	2
TAP	81	0	3
TAP	81	96	3
TAP	81	192	3
STR	82	0	4
SI_	82	0	4	96	288	7
STR	84	0	3
SI_	84	0	3	96	288	0
BRK	86	0	1
BRK	86	0	6

T_REC_TAP	154
T_REC_BRK	5
T_REC_XTP	0
T_REC_HLD	16
T_REC_XHO	0
T_REC_STR	9
T_REC_BST	0
T_REC_XST	0
T_REC_TTP	0
T_REC_THO	0
T_REC_SLD	9
T_REC_ALL	193
T_NUM_TAP	163
T_NUM_BRK	5
T_NUM_HLD	16
T_NUM_SLD	9
T_NUM_ALL	193
T_JUDGE_TAP	168
T_JUDGE_HLD	72
T_JUDGE_SLD	9
T_JUDGE_ALL	249
TTM_EACHPAIRS	36
TTM_SCR_TAP	81500
TTM_SCR_BRK	13000
TTM_SCR_HLD	16000
TTM_SCR_SLD	13500
TTM_SCR_ALL	124000
TTM_SCR_S	119800
TTM_SCR_SS	123500
TTM_RAT_ACV	10040

