VERSION	0.00.00	1.03.00
FES_MODE	0
BPM_DEF	152.000	152.000	152.000	152.000
MET_DEF	4	4
RESOLUTION	384
CLK_DEF	384
COMPATIBLE_CODE	MA2

BPM	0	0	152.000
MET	0	0	4	4

HLD	1	0	0	144
TAP	1	0	7
HLD	1	96	6	144
HLD	1	192	1	144
HLD	1	288	5	144
HLD	2	0	2	144
HLD	2	96	4	144
HLD	2	192	3	144
HLD	2	288	5	144
HLD	3	0	2	144
HLD	3	96	6	144
HLD	3	192	1	144
HLD	3	288	7	144
HLD	4	0	0	144
HLD	4	96	6	144
HLD	4	192	1	48
BRK	4	288	1
BRK	4	288	6
STR	5	0	5
SI_	5	0	5	96	48	7
TAP	5	48	3
TAP	5	96	3
STR	5	192	5
SI_	5	192	5	96	48	7
TAP	5	240	4
TAP	5	288	4
STR	6	0	5
SI_	6	0	5	96	48	7
TAP	6	48	3
TAP	6	96	3
TAP	6	192	5
TAP	6	240	3
TAP	6	288	7
TAP	6	336	7
STR	7	0	2
SI_	7	0	2	96	48	0
TAP	7	48	4
TAP	7	96	4
STR	7	192	2
SI_	7	192	2	96	48	0
TAP	7	240	3
TAP	7	288	3
STR	8	0	2
SI_	8	0	2	96	48	0
TAP	8	48	4
TAP	8	96	4
TAP	8	192	2
TAP	8	240	4
TAP	8	288	0
TAP	8	336	0
STR	9	0	5
SI_	9	0	5	96	48	7
TAP	9	48	3
TAP	9	96	3
TAP	9	144	3
STR	9	192	5
SI_	9	192	5	96	48	7
TAP	9	240	4
TAP	9	288	4
TAP	9	336	4
STR	10	0	5
SI_	10	0	5	96	48	7
TAP	10	48	3
TAP	10	96	3
TAP	10	144	2
TAP	10	192	5
TAP	10	240	3
TAP	10	288	7
TAP	10	336	7
STR	11	0	2
SI_	11	0	2	96	48	0
TAP	11	48	4
TAP	11	96	4
TAP	11	144	4
STR	11	192	2
SI_	11	192	2	96	48	0
TAP	11	240	3
TAP	11	288	3
TAP	11	336	3
TAP	12	0	2
TAP	12	48	3
TAP	12	48	4
TAP	12	96	3
TAP	12	96	4
TAP	12	144	5
TAP	12	192	3
TAP	12	192	4
STR	12	288	5
SCL	12	288	5	96	48	2
TAP	12	288	6
TAP	13	0	7
TAP	13	96	1
STR	13	96	2
SCR	13	96	2	96	48	5
TAP	13	192	0
TAP	13	288	6
TAP	13	336	7
TAP	14	0	0
TAP	14	48	1
TAP	14	96	1
TAP	14	144	0
TAP	14	192	7
TAP	14	240	6
TAP	14	288	5
STR	14	288	6
SCR	14	288	6	96	48	1
TAP	15	0	4
STR	15	96	1
SCL	15	96	1	96	48	6
TAP	15	96	2
TAP	15	192	3
TAP	15	288	5
TAP	15	336	4
TAP	16	0	3
TAP	16	48	2
TAP	16	96	2
TAP	16	144	3
TAP	16	192	4
TAP	16	240	3
STR	16	288	2
SCR	16	288	2	96	48	5
TAP	16	288	5
TAP	17	0	7
STR	17	96	5
SCL	17	96	5	96	48	2
TAP	17	96	6
TAP	17	192	7
TAP	17	288	1
TAP	17	336	0
TAP	18	0	7
TAP	18	48	6
TAP	18	96	6
TAP	18	144	7
TAP	18	192	0
TAP	18	240	1
TAP	18	288	0
TAP	18	288	7
BRK	19	0	5
BST	19	96	7
SUL	19	96	7	96	96	2
BRK	19	192	0
TAP	19	288	1
HLD	20	0	4	48
HLD	20	0	5	48
HLD	20	96	2	48
HLD	20	96	3	48
HLD	20	192	3	48
HLD	20	192	4	48
TAP	20	288	1
TAP	20	288	6
STR	21	0	2
SI_	21	0	2	96	48	0
TAP	21	48	4
TAP	21	96	4
TAP	21	144	4
STR	21	192	2
SI_	21	192	2	96	48	0
TAP	21	240	3
TAP	21	288	3
TAP	21	336	3
STR	22	0	2
SI_	22	0	2	96	48	0
TAP	22	48	4
TAP	22	96	4
TAP	22	144	5
TAP	22	192	2
TAP	22	240	4
TAP	22	288	0
TAP	22	336	0
STR	23	0	5
SI_	23	0	5	96	48	7
TAP	23	48	3
TAP	23	96	3
TAP	23	144	3
STR	23	192	5
SI_	23	192	5	96	48	7
TAP	23	240	4
TAP	23	288	4
TAP	23	336	4
STR	24	0	5
SI_	24	0	5	96	48	7
TAP	24	48	3
TAP	24	96	3
TAP	24	144	2
TAP	24	192	5
TAP	24	240	1
TAP	24	288	1
STR	24	288	2
SI_	24	288	2	96	48	5
TAP	24	336	1
TAP	25	0	1
STR	25	96	5
SI_	25	96	5	96	48	2
TAP	25	96	6
TAP	25	288	1
TAP	25	336	0
TAP	26	0	7
TAP	26	48	6
TAP	26	96	6
TAP	26	144	7
TAP	26	192	0
TAP	26	240	1
STR	26	288	1
SI_	26	288	1	96	48	6
TAP	26	288	2
TAP	27	0	4
TAP	27	96	5
STR	27	96	6
SI_	27	96	6	96	48	1
TAP	27	192	4
TAP	27	288	2
TAP	27	336	3
TAP	28	0	4
TAP	28	48	5
TAP	28	96	5
TAP	28	144	4
TAP	28	192	3
TAP	28	240	4
TAP	28	288	2
STR	28	288	5
SI_	28	288	5	96	48	2
TAP	29	0	0
TAP	29	96	1
STR	29	96	2
SI_	29	96	2	96	48	5
TAP	29	192	7
TAP	29	288	6
TAP	29	336	7
TAP	30	0	0
TAP	30	48	1
TAP	30	96	1
TAP	30	144	0
BRK	30	192	0
BRK	30	192	6
BRK	30	240	1
BRK	30	240	7
BRK	30	288	0
BRK	30	288	5
BRK	30	336	2
BRK	30	336	7
TAP	31	0	3
TAP	31	0	5
TAP	31	96	1
TAP	31	96	4
TAP	31	192	2
TAP	31	192	6
HLD	31	288	0	384
TAP	31	288	4
TAP	32	48	4
TAP	32	96	3
TAP	32	144	4
TAP	32	192	3
TAP	32	240	4
TAP	32	288	3
TAP	33	0	3
TAP	33	0	4
TAP	33	96	3
TAP	33	96	5
TAP	33	192	3
TAP	33	192	4
TAP	33	288	2
TAP	33	288	4
TAP	34	0	3
TAP	34	0	4
TAP	34	96	3
TAP	34	96	6
TAP	34	192	3
TAP	34	192	4
TAP	34	288	1
TAP	34	288	4
TAP	35	0	2
TAP	35	0	3
TAP	35	48	3
TAP	35	48	4
TAP	35	96	4
TAP	35	96	5
TAP	35	144	3
TAP	35	144	4
TAP	35	192	2
TAP	35	192	3
TAP	35	240	3
TAP	35	240	4
TAP	35	288	4
TAP	35	288	5
TAP	35	336	3
TAP	35	336	4
TAP	36	0	3
TAP	36	24	4
TAP	36	48	3
TAP	36	72	4
TAP	36	96	2
TAP	36	120	5
TAP	36	144	2
TAP	36	168	5
TAP	36	192	3
STR	36	288	0
SCR	36	288	0	96	48	3
TAP	36	288	4
TAP	37	0	0
STR	37	0	7
SCL	37	0	7	96	48	4
STR	37	96	0
SCR	37	96	0	96	48	3
TAP	37	96	7
TAP	37	192	0
STR	37	192	7
SCL	37	192	7	96	48	4
STR	37	288	0
SCR	37	288	0	96	48	3
TAP	37	288	7
TAP	38	0	0
STR	38	0	7
SCL	38	0	7	96	48	4
STR	38	96	0
SCR	38	96	0	96	48	3
TAP	38	96	7
TAP	38	192	0
BRK	38	192	7
TAP	38	288	3
TAP	38	288	4
TAP	38	336	2
TAP	39	0	2
TAP	39	48	3
TAP	39	96	4
TAP	39	144	5
STR	39	192	4
SCL	39	192	4	96	48	1
SCR	39	192	4	96	48	7
TAP	40	0	1
TAP	40	0	4
TAP	40	48	0
TAP	40	48	5
TAP	40	96	1
TAP	40	96	4
TAP	40	144	0
TAP	40	144	5
TAP	40	192	1
TAP	40	192	4
BRK	40	240	0
BRK	40	240	1
BRK	40	288	0
BRK	40	288	1
STR	41	0	1
SCR	41	0	1	96	48	4
STR	41	0	5
SCR	41	0	5	96	48	0
STR	41	192	3
SCL	41	192	3	96	48	0
STR	41	192	7
SCL	41	192	7	96	48	4
HLD	42	0	1	48
HLD	42	0	6	48
HLD	42	96	2	48
HLD	42	96	5	48
HLD	42	192	3	96
HLD	42	192	4	96
TAP	42	336	3
TAP	42	336	4
TAP	43	48	0
TAP	43	48	7
TAP	43	96	0
TAP	43	96	7
STR	43	192	1
SI_	43	192	1	96	48	6
STR	43	192	5
SI_	43	192	5	96	48	2
TAP	44	48	2
TAP	44	48	6
TAP	44	96	1
TAP	44	96	5
TAP	44	192	2
TAP	44	192	6
TAP	44	240	1
TAP	44	240	5
TAP	44	288	0
STR	44	288	7
SCL	44	288	7	96	48	4
STR	45	0	0
SCR	45	0	0	96	48	3
TAP	45	0	7
TAP	45	96	0
STR	45	96	7
SCL	45	96	7	96	48	4
STR	45	192	0
SCR	45	192	0	96	48	3
TAP	45	192	7
TAP	45	288	0
STR	45	288	7
SCL	45	288	7	96	48	4
STR	46	0	0
SCR	46	0	0	96	48	3
TAP	46	0	7
TAP	46	96	0
STR	46	96	7
SCL	46	96	7	96	48	4
BRK	46	192	0
TAP	46	192	7
STR	46	288	1
SI_	46	288	1	96	48	7
STR	46	288	5
SI_	46	288	5	96	48	3
STR	47	96	1
SI_	47	96	1	96	48	4
STR	47	96	5
SI_	47	96	5	96	48	0
STR	47	288	1
SXR	47	288	1	96	144	3
STR	47	288	5
SXL	47	288	5	96	144	3
TAP	48	192	1
TAP	48	192	5
BRK	48	240	0
BRK	48	240	1
BRK	48	288	0
BRK	48	288	1
TAP	49	0	6
TAP	49	48	6
TAP	49	96	7
TAP	49	144	0
HLD	49	192	0	96
STR	49	288	7
SCL	49	288	7	96	48	4
STR	50	0	7
SCR	50	0	7	96	48	2
STR	50	96	7
SI_	50	96	7	96	48	3
BRK	50	192	7
TAP	50	288	2
TAP	50	288	5
TAP	50	336	4
TAP	51	0	3
TAP	51	48	2
TAP	51	48	5
TAP	51	96	3
TAP	51	144	4
TAP	51	192	2
TAP	51	192	5
TAP	51	240	4
TAP	51	288	3
TAP	51	336	1
TAP	51	336	5
TAP	52	48	2
TAP	52	48	6
TAP	52	96	1
TAP	52	96	5
TAP	52	192	2
TAP	52	192	6
TAP	52	240	1
TAP	52	240	5
TAP	52	336	2
TAP	52	336	5
STR	53	0	2
SI_	53	0	2	96	48	0
TAP	53	0	5
TAP	53	48	4
TAP	53	96	4
TAP	53	144	4
STR	53	192	2
SI_	53	192	2	96	48	0
TAP	53	240	3
TAP	53	288	3
TAP	53	336	3
STR	54	0	2
SI_	54	0	2	96	48	0
TAP	54	48	4
TAP	54	96	4
TAP	54	144	5
TAP	54	192	2
TAP	54	240	4
TAP	54	288	0
TAP	54	336	0
STR	55	0	5
SI_	55	0	5	96	48	7
TAP	55	48	3
TAP	55	96	3
TAP	55	144	3
STR	55	192	5
SI_	55	192	5	96	48	7
TAP	55	240	4
TAP	55	288	4
TAP	55	336	4
STR	56	0	5
SI_	56	0	5	96	48	7
TAP	56	48	3
TAP	56	96	3
TAP	56	144	2
TAP	56	192	5
TAP	56	240	3
TAP	56	240	4
TAP	56	336	0
TAP	56	336	7
STR	57	0	0
SF_	57	0	0	96	48	4
TAP	57	0	7
HLD	57	192	0	96
TAP	57	192	7
TAP	57	288	7
TAP	58	0	6
TAP	58	48	7
TAP	58	96	0
TAP	58	144	1
TAP	58	192	0
TAP	58	240	7
TAP	58	288	1
TAP	58	288	6
STR	59	0	0
SI_	59	0	0	96	48	3
STR	59	0	4
SI_	59	0	4	96	48	7
STR	59	192	3
SI_	59	192	3	96	48	0
STR	59	192	7
SI_	59	192	7	96	48	4
TAP	60	0	5
TAP	60	48	4
TAP	60	96	3
TAP	60	144	2
TAP	60	192	3
TAP	60	240	2
TAP	60	240	5
TAP	60	288	2
TAP	60	288	5
STR	61	0	2
SI_	61	0	2	96	48	5
STR	61	0	6
SI_	61	0	6	96	48	1
STR	61	192	1
SI_	61	192	1	96	48	6
STR	61	192	5
SI_	61	192	5	96	48	2
BRK	62	0	6
TAP	62	48	0
STR	62	48	7
SI_	62	48	7	96	48	3
STR	62	96	1
SI_	62	96	1	96	48	5
TAP	62	288	1
TAP	62	288	6
TAP	63	0	0
TAP	63	0	4
TAP	63	48	0
TAP	63	48	4
TAP	63	96	1
TAP	63	96	5
TAP	63	144	1
TAP	63	144	5
TAP	63	192	2
TAP	63	192	6
TAP	63	240	2
TAP	63	240	6
TAP	63	288	3
TAP	63	288	7
TAP	64	0	3
TAP	64	0	7
TAP	64	48	2
TAP	64	48	6
TAP	64	96	1
TAP	64	96	5
TAP	64	144	0
TAP	64	144	4
TAP	64	192	3
HLD	64	192	7	384
TAP	65	0	3
TAP	65	48	3
TAP	65	96	3
TAP	65	144	3
TAP	65	192	3
TAP	65	240	4
TAP	65	264	3
TAP	65	288	4
HLD	66	0	1	1440
HLD	66	0	5	1440
HLD	70	0	4	192
HLD	70	192	3	192
HLD	71	0	5	96
HLD	71	96	4	96
HLD	71	192	3	480
TAP	72	0	5
TAP	72	96	5
TAP	72	192	5
TAP	72	288	5
TAP	73	0	3
TAP	73	0	4
TAP	73	48	2
TAP	73	48	5
TAP	73	96	1
TAP	73	96	6
TAP	73	144	3
TAP	73	144	4
TAP	73	192	3
TAP	73	216	4
TAP	73	240	3
BRK	73	288	0
STR	73	288	4
SCR	73	288	4	96	48	7
STR	74	0	3
SCL	74	0	3	96	48	0
TAP	74	0	4
TAP	74	96	3
STR	74	96	4
SCR	74	96	4	96	48	7
STR	74	192	3
SCL	74	192	3	96	48	0
TAP	74	192	4
TAP	74	288	3
STR	74	288	4
SCR	74	288	4	96	48	7
STR	75	0	3
SCL	75	0	3	96	48	0
TAP	75	0	4
TAP	75	96	3
STR	75	96	4
SCR	75	96	4	96	48	7
BRK	75	192	3
TAP	75	192	4
TAP	75	288	0
TAP	75	288	7
STR	76	0	3
SI_	76	0	3	96	48	1
STR	76	0	4
SI_	76	0	4	96	48	0
STR	76	192	3
SI_	76	192	3	96	48	7
STR	76	192	4
SI_	76	192	4	96	48	6
TAP	77	0	2
TAP	77	0	4
TAP	77	48	1
TAP	77	96	3
TAP	77	96	5
TAP	77	144	6
TAP	77	192	3
TAP	77	192	4
BRK	77	240	0
BRK	77	240	1
BRK	77	288	0
BRK	77	288	1
STR	78	0	2
SI_	78	0	2	96	48	7
STR	78	0	6
SI_	78	0	6	96	48	3
STR	78	192	1
SI_	78	192	1	96	48	4
STR	78	192	5
SI_	78	192	5	96	48	0
STR	79	0	3
SCL	79	0	3	96	48	0
STR	79	0	7
SCL	79	0	7	96	48	4
BRK	79	192	1
BRK	79	192	5
TAP	79	288	0
TAP	79	288	7
STR	80	0	3
SI_	80	0	3	96	48	6
STR	80	0	4
SI_	80	0	4	96	48	7
STR	80	192	3
SI_	80	192	3	96	48	0
STR	80	192	4
SI_	80	192	4	96	48	1
BRK	81	48	2
BRK	81	48	6
BRK	81	96	1
BRK	81	96	5
BRK	81	192	2
BRK	81	192	6
BRK	81	240	1
BRK	81	240	5
TAP	81	336	0
TAP	81	336	7
STR	82	0	2
SI_	82	0	2	96	48	0
TAP	82	0	5
TAP	82	48	4
TAP	82	96	4
TAP	82	144	4
STR	82	192	1
SI_	82	192	1	96	48	7
TAP	82	240	3
TAP	82	288	3
TAP	82	336	3
STR	83	0	2
SI_	83	0	2	96	48	0
TAP	83	48	4
TAP	83	96	4
TAP	83	144	5
TAP	83	192	2
TAP	83	240	4
TAP	83	288	0
TAP	83	336	0
STR	84	0	5
SI_	84	0	5	96	48	7
TAP	84	48	3
TAP	84	96	3
TAP	84	144	3
STR	84	192	6
SI_	84	192	6	96	48	0
TAP	84	240	4
TAP	84	288	4
TAP	84	336	4
STR	85	0	5
SI_	85	0	5	96	48	7
TAP	85	48	3
TAP	85	96	3
TAP	85	144	2
TAP	85	192	5
TAP	85	240	3
TAP	85	240	4
TAP	85	336	3
TAP	85	336	4
STR	86	0	5
SI_	86	0	5	96	48	7
TAP	86	48	3
TAP	86	96	3
TAP	86	144	3
STR	86	192	7
SI_	86	192	7	96	48	5
TAP	86	240	4
TAP	86	288	4
TAP	86	336	4
STR	87	0	5
SI_	87	0	5	96	48	7
TAP	87	48	3
TAP	87	96	3
TAP	87	144	2
TAP	87	192	5
TAP	87	240	3
TAP	87	288	7
TAP	87	336	7
STR	88	0	2
SI_	88	0	2	96	48	0
TAP	88	48	4
TAP	88	96	4
TAP	88	144	4
STR	88	192	0
SI_	88	192	0	96	48	2
TAP	88	240	3
TAP	88	288	3
TAP	88	336	3
TAP	89	0	1
TAP	89	0	5
TAP	89	48	2
TAP	89	48	6
TAP	89	96	1
TAP	89	96	5
TAP	89	144	2
TAP	89	144	6
TAP	89	192	1
TAP	89	192	5
TAP	89	240	2
TAP	89	240	6
BRK	89	288	1
BRK	89	288	5
BRK	89	336	2
BRK	89	336	6

T_REC_TAP	455
T_REC_BRK	44
T_REC_XTP	0
T_REC_HLD	38
T_REC_XHO	0
T_REC_STR	108
T_REC_BST	1
T_REC_XST	0
T_REC_TTP	0
T_REC_THO	0
T_REC_SLD	110
T_REC_ALL	756
T_NUM_TAP	563
T_NUM_BRK	45
T_NUM_HLD	38
T_NUM_SLD	110
T_NUM_ALL	756
T_JUDGE_TAP	608
T_JUDGE_HLD	159
T_JUDGE_SLD	110
T_JUDGE_ALL	877
TTM_EACHPAIRS	168
TTM_SCR_TAP	281500
TTM_SCR_BRK	117000
TTM_SCR_HLD	38000
TTM_SCR_SLD	165000
TTM_SCR_ALL	601500
TTM_SCR_S	579100
TTM_SCR_SS	597000
TTM_RAT_ACV	10075

