VERSION	0.00.00	1.03.00
FES_MODE	0
BPM_DEF	152.000	152.000	152.000	152.000
MET_DEF	4	4
RESOLUTION	384
CLK_DEF	384
COMPATIBLE_CODE	MA2

BPM	0	0	152.000
MET	0	0	4	4

TAP	1	0	5
TAP	1	96	5
TAP	1	192	4
TAP	1	288	4
TAP	2	0	2
TAP	2	96	2
TAP	2	192	3
TAP	2	288	3
TAP	3	0	5
TAP	3	96	4
TAP	3	192	3
TAP	3	288	2
TAP	4	0	2
TAP	4	96	3
TAP	4	192	4
BRK	4	288	1
BRK	4	288	6
TAP	5	0	3
STR	5	0	4
SI_	5	0	4	96	48	6
STR	5	192	3
SI_	5	192	3	96	48	1
TAP	5	192	4
HLD	6	0	5	192
TAP	6	96	4
TAP	6	192	3
TAP	6	288	2
TAP	6	288	4
TAP	7	0	3
STR	7	0	4
SCR	7	0	4	96	48	6
STR	7	192	3
SCL	7	192	3	96	48	1
TAP	7	192	4
HLD	8	0	4	96
HLD	8	96	5	96
TAP	8	192	6
TAP	8	288	6
TAP	8	288	7
STR	9	0	0
SI_	9	0	0	96	48	2
TAP	9	0	7
TAP	9	192	0
STR	9	192	7
SI_	9	192	7	96	48	5
HLD	10	0	1	192
TAP	10	96	0
TAP	10	192	7
TAP	10	288	0
TAP	10	288	6
STR	11	0	0
SCR	11	0	0	96	48	2
TAP	11	0	7
TAP	11	192	0
STR	11	192	7
SCL	11	192	7	96	48	5
HLD	12	0	0	96
HLD	12	96	1	96
TAP	12	192	2
TAP	12	288	1
TAP	12	288	6
HLD	13	0	2	480
TAP	13	0	4
TAP	13	96	3
TAP	13	192	4
TAP	13	288	5
TAP	14	0	4
TAP	14	96	6
TAP	14	192	2
TAP	14	192	3
TAP	14	288	1
TAP	14	288	4
TAP	15	0	3
HLD	15	0	5	480
TAP	15	96	4
TAP	15	192	3
TAP	15	288	2
TAP	16	0	3
TAP	16	96	1
TAP	16	192	4
TAP	16	192	5
TAP	16	288	3
TAP	16	288	6
HLD	17	0	3	480
TAP	17	0	4
TAP	17	96	2
TAP	17	192	4
TAP	17	288	5
TAP	18	0	4
TAP	18	96	6
TAP	18	192	5
TAP	18	192	7
TAP	18	288	0
TAP	18	288	4
HLD	19	0	1	96
HLD	19	96	2	96
HLD	19	192	3	96
STR	19	288	4
SXL	19	288	4	96	192	4
SXR	19	288	4	96	192	4
TAP	20	288	1
TAP	20	288	6
STR	21	0	2
SI_	21	0	2	96	48	0
TAP	21	0	3
TAP	21	192	4
STR	21	192	5
SI_	21	192	5	96	48	7
HLD	22	0	2	192
TAP	22	0	3
TAP	22	96	4
TAP	22	192	5
TAP	22	288	4
TAP	22	288	5
STR	23	0	2
SCL	23	0	2	96	48	0
TAP	23	0	3
TAP	23	192	4
STR	23	192	5
SCR	23	192	5	96	48	7
HLD	24	0	2	96
TAP	24	0	3
HLD	24	96	1	96
TAP	24	192	0
TAP	24	288	0
TAP	24	288	7
TAP	25	0	0
HLD	25	0	6	480
TAP	25	96	7
TAP	25	192	0
TAP	25	288	1
TAP	26	0	0
TAP	26	96	2
TAP	26	192	6
TAP	26	192	7
TAP	26	288	0
TAP	26	288	5
HLD	27	0	1	480
TAP	27	0	7
TAP	27	96	0
TAP	27	192	7
TAP	27	288	6
TAP	28	0	7
TAP	28	96	5
TAP	28	192	0
TAP	28	192	1
TAP	28	288	2
TAP	28	288	7
TAP	29	0	0
HLD	29	0	7	480
TAP	29	96	6
TAP	29	192	0
TAP	29	288	1
TAP	30	0	0
TAP	30	96	2
BRK	30	192	1
BRK	30	192	6
BRK	30	288	1
BRK	30	288	6
HLD	31	0	0	96
HLD	31	96	1	96
HLD	31	192	2	96
TAP	31	288	3
HLD	32	0	4	96
HLD	32	96	5	96
HLD	32	192	6	96
TAP	32	288	7
TAP	33	0	6
TAP	33	0	7
TAP	33	96	0
TAP	33	96	5
TAP	33	192	1
TAP	33	192	4
TAP	33	288	2
TAP	33	288	3
TAP	34	0	0
TAP	34	0	1
TAP	34	96	2
TAP	34	96	7
TAP	34	192	3
TAP	34	192	6
TAP	34	288	4
TAP	34	288	5
STR	35	0	6
SI_	35	0	6	96	48	3
TAP	35	96	7
STR	35	192	1
SI_	35	192	1	96	48	4
TAP	35	288	0
STR	36	0	2
SI_	36	0	2	96	48	0
STR	36	0	5
SI_	36	0	5	96	48	7
BRK	36	192	1
BRK	36	192	6
TAP	37	0	6
STR	37	0	7
SI_	37	0	7	96	48	3
STR	37	192	0
SI_	37	192	0	96	48	4
TAP	37	192	1
TAP	38	0	6
STR	38	0	7
SI_	38	0	7	96	48	3
TAP	38	192	1
TAP	38	192	6
HLD	39	0	0	96
HLD	39	96	1	96
HLD	39	192	2	96
TAP	39	288	3
TAP	40	0	3
TAP	40	0	4
TAP	40	96	2
TAP	40	96	5
TAP	40	192	1
TAP	40	192	6
BRK	40	240	0
BRK	40	288	0
STR	41	0	0
SI_	41	0	0	96	48	5
STR	41	0	1
SI_	41	0	1	96	48	4
STR	41	192	6
SI_	41	192	6	96	48	3
STR	41	192	7
SI_	41	192	7	96	48	2
TAP	42	0	0
HLD	42	0	1	192
TAP	42	96	7
TAP	42	144	7
TAP	42	192	6
TAP	42	288	2
TAP	42	288	5
HLD	43	0	1	96
HLD	43	96	3	96
HLD	43	192	4	96
TAP	43	288	6
TAP	43	336	6
TAP	44	48	2
TAP	44	48	6
TAP	44	96	1
TAP	44	96	5
TAP	44	192	2
TAP	44	192	6
TAP	44	240	1
TAP	44	240	5
STR	45	0	0
SI_	45	0	0	96	48	4
TAP	45	0	1
TAP	45	192	6
STR	45	192	7
SI_	45	192	7	96	48	3
STR	46	0	0
SI_	46	0	0	96	48	4
TAP	46	0	1
TAP	46	192	1
TAP	46	192	6
HLD	47	0	7	96
HLD	47	96	6	96
HLD	47	192	5	96
TAP	47	288	4
TAP	48	0	3
TAP	48	0	4
TAP	48	96	2
TAP	48	96	5
TAP	48	192	1
TAP	48	192	6
BRK	48	240	7
BRK	48	288	7
STR	49	0	6
SI_	49	0	6	96	48	3
STR	49	0	7
SI_	49	0	7	96	48	2
STR	49	192	0
SI_	49	192	0	96	48	5
STR	49	192	1
SI_	49	192	1	96	48	4
TAP	50	0	3
TAP	50	0	4
TAP	50	96	0
TAP	50	96	7
BRK	50	192	1
BRK	50	192	6
HLD	51	0	6	96
HLD	51	96	4	96
HLD	51	192	3	96
TAP	51	288	1
TAP	51	336	1
TAP	52	48	1
TAP	52	48	5
TAP	52	96	2
TAP	52	96	6
TAP	52	192	1
TAP	52	192	5
TAP	52	240	2
TAP	52	240	6
TAP	52	336	7
BST	53	0	7
SF_	53	0	7	96	336	3
TAP	54	288	1
TAP	54	288	6
TAP	55	0	0
STR	55	0	7
SI_	55	0	7	96	48	3
STR	55	192	0
SI_	55	192	0	96	48	4
TAP	55	192	7
HLD	56	0	7	96
HLD	56	96	6	96
TAP	56	192	5
TAP	56	288	1
TAP	56	288	6
TAP	57	0	2
TAP	57	48	2
HLD	57	96	2	96
TAP	57	192	3
TAP	57	240	3
HLD	57	288	3	96
TAP	58	0	4
TAP	58	96	4
TAP	58	96	5
TAP	58	192	3
TAP	58	288	2
TAP	58	288	3
TAP	59	0	5
TAP	59	48	5
HLD	59	96	5	96
TAP	59	192	4
TAP	59	240	4
HLD	59	288	4	96
TAP	60	0	3
TAP	60	96	2
TAP	60	96	3
TAP	60	192	4
TAP	60	288	4
TAP	60	288	5
TAP	61	0	1
TAP	61	48	1
HLD	61	96	1	96
TAP	61	192	3
TAP	61	240	3
HLD	61	288	3	96
TAP	62	0	4
TAP	62	96	4
TAP	62	96	6
TAP	62	192	3
TAP	62	288	1
TAP	62	288	3
TAP	63	0	6
TAP	63	48	6
HLD	63	96	6	96
TAP	63	192	4
TAP	63	240	4
HLD	63	288	4	96
TAP	64	0	3
TAP	64	96	1
TAP	64	96	3
TAP	64	192	2
TAP	64	192	4
TAP	64	288	3
STR	64	288	5
SCR	64	288	5	96	240	2
HLD	66	0	2	384
HLD	67	0	3	384
HLD	68	0	4	384
HLD	69	0	5	288
HLD	70	0	5	192
HLD	70	192	4	192
HLD	71	0	3	192
HLD	71	192	2	192
TAP	72	0	3
TAP	72	96	3
TAP	72	192	4
TAP	72	288	4
BRK	73	288	1
BRK	73	288	6
TAP	74	0	2
STR	74	0	3
SI_	74	0	3	96	48	7
TAP	74	96	1
STR	74	192	4
SI_	74	192	4	96	48	0
TAP	74	192	5
TAP	74	288	6
TAP	75	0	2
STR	75	0	3
SI_	75	0	3	96	48	7
TAP	75	96	1
TAP	75	192	1
TAP	75	192	6
HLD	76	0	7	96
HLD	76	96	6	96
HLD	76	192	5	96
TAP	76	288	4
TAP	77	0	3
TAP	77	0	4
TAP	77	96	2
TAP	77	96	5
TAP	77	192	1
TAP	77	192	6
BRK	77	240	0
BRK	77	288	0
STR	78	0	0
SI_	78	0	0	96	48	2
STR	78	0	7
SI_	78	0	7	96	48	5
STR	78	192	3
SI_	78	192	3	96	48	1
STR	78	192	4
SI_	78	192	4	96	48	6
BRK	79	0	0
BRK	79	0	7
BRK	79	96	3
BRK	79	96	4
BRK	79	192	1
BRK	79	192	6
HLD	80	0	1	96
HLD	80	96	3	96
HLD	80	192	5	96
TAP	80	288	7
TAP	80	336	7
TAP	81	48	2
TAP	81	48	6
TAP	81	96	1
TAP	81	96	5
TAP	81	192	2
TAP	81	192	6
TAP	81	240	1
TAP	81	240	5
TAP	81	336	0
BST	82	0	0
SF_	82	0	0	96	336	4
TAP	83	288	1
TAP	83	288	6
STR	84	0	0
SI_	84	0	0	96	48	5
TAP	84	0	7
TAP	84	192	0
STR	84	192	7
SI_	84	192	7	96	48	2
TAP	85	0	2
TAP	85	0	3
TAP	85	96	4
TAP	85	96	5
TAP	85	192	6
TAP	85	240	7
TAP	85	288	0
TAP	85	288	5
TAP	86	0	0
STR	86	0	7
SI_	86	0	7	96	48	2
STR	86	192	0
SI_	86	192	0	96	48	5
TAP	86	192	7
TAP	87	0	4
TAP	87	0	5
TAP	87	96	2
TAP	87	96	3
TAP	87	192	1
TAP	87	240	0
TAP	87	288	2
TAP	87	288	7
STR	88	0	6
SI_	88	0	6	96	48	3
STR	88	0	7
SI_	88	0	7	96	48	2
STR	88	192	0
SI_	88	192	0	96	48	5
STR	88	192	1
SI_	88	192	1	96	48	4
TAP	89	0	3
TAP	89	0	4
TAP	89	96	2
TAP	89	96	5
TAP	89	192	0
TAP	89	192	7
BRK	89	288	1
BRK	89	288	5
BRK	89	336	2
BRK	89	336	6

T_REC_TAP	288
T_REC_BRK	28
T_REC_XTP	0
T_REC_HLD	61
T_REC_XHO	0
T_REC_STR	49
T_REC_BST	2
T_REC_XST	0
T_REC_TTP	0
T_REC_THO	0
T_REC_SLD	52
T_REC_ALL	480
T_NUM_TAP	337
T_NUM_BRK	30
T_NUM_HLD	61
T_NUM_SLD	52
T_NUM_ALL	480
T_JUDGE_TAP	367
T_JUDGE_HLD	208
T_JUDGE_SLD	52
T_JUDGE_ALL	627
TTM_EACHPAIRS	129
TTM_SCR_TAP	168500
TTM_SCR_BRK	78000
TTM_SCR_HLD	61000
TTM_SCR_SLD	78000
TTM_SCR_ALL	385500
TTM_SCR_S	371050
TTM_SCR_SS	382500
TTM_RAT_ACV	10078

