VERSION	0.00.00	1.03.00
FES_MODE	0
BPM_DEF	152.000	152.000	152.000	152.000
MET_DEF	4	4
RESOLUTION	384
CLK_DEF	384
COMPATIBLE_CODE	MA2

BPM	0	0	152.000
MET	0	0	4	4

TAP	5	0	2
TAP	5	96	3
TAP	5	192	1
TAP	5	192	4
TAP	6	0	5
TAP	6	96	4
TAP	6	192	3
TAP	6	192	6
TAP	7	0	2
TAP	7	96	2
TAP	7	192	3
TAP	7	288	3
TAP	8	0	2
TAP	8	96	3
TAP	8	192	1
TAP	8	192	4
TAP	9	0	6
TAP	9	96	7
TAP	9	192	0
TAP	9	192	5
TAP	10	0	1
TAP	10	96	0
TAP	10	192	2
TAP	10	192	7
TAP	11	0	6
TAP	11	96	6
TAP	11	192	7
TAP	11	288	7
HLD	12	0	0	96
HLD	12	0	7	96
TAP	12	192	1
TAP	12	192	6
HLD	13	0	5	192
TAP	13	192	4
TAP	14	0	2
TAP	14	96	2
TAP	14	192	1
TAP	14	192	3
HLD	15	0	2	192
TAP	15	192	3
TAP	16	0	5
TAP	16	96	5
TAP	16	192	4
TAP	16	192	6
HLD	17	0	5	192
TAP	17	192	4
TAP	18	0	2
TAP	18	96	2
TAP	18	192	1
TAP	18	192	3
TAP	19	0	2
TAP	19	96	1
TAP	19	192	0
TAP	19	192	7
TAP	20	0	5
TAP	20	96	6
TAP	20	192	0
TAP	20	192	7
TAP	20	288	0
TAP	20	288	7
TAP	21	0	1
TAP	21	96	0
TAP	21	192	2
TAP	21	192	7
TAP	22	0	6
TAP	22	96	7
TAP	22	192	0
TAP	22	192	5
TAP	23	0	1
TAP	23	96	1
TAP	23	192	0
TAP	23	288	0
HLD	24	0	0	96
HLD	24	0	7	96
TAP	24	192	1
TAP	24	192	6
HLD	25	0	1	192
TAP	25	192	0
TAP	26	0	6
TAP	26	96	6
TAP	26	192	5
TAP	26	192	7
HLD	27	0	6	192
TAP	27	192	7
TAP	28	0	1
TAP	28	96	1
TAP	28	192	0
TAP	28	192	2
HLD	29	0	1	192
TAP	29	192	0
TAP	30	0	6
TAP	30	96	6
TAP	30	192	5
TAP	30	192	7
TAP	31	0	5
TAP	31	96	6
TAP	31	192	0
TAP	31	192	7
TAP	32	0	2
TAP	32	96	1
TAP	32	192	0
TAP	32	192	7
TAP	32	288	0
TAP	32	288	7
TAP	33	0	6
TAP	33	96	7
TAP	33	192	0
TAP	33	192	6
TAP	34	0	1
TAP	34	96	0
TAP	34	192	1
TAP	34	192	7
TAP	35	0	2
TAP	35	96	3
TAP	35	192	5
TAP	35	288	4
TAP	36	0	2
TAP	36	0	3
TAP	36	96	4
TAP	36	96	5
BRK	36	192	1
BRK	36	192	6
TAP	37	0	5
TAP	37	96	4
TAP	37	96	6
TAP	37	192	2
TAP	37	288	1
TAP	37	288	3
TAP	38	0	0
TAP	38	96	7
TAP	38	192	1
TAP	38	192	6
TAP	39	0	7
TAP	39	96	6
TAP	39	192	5
TAP	39	288	4
TAP	40	0	3
TAP	40	96	2
TAP	40	192	0
TAP	40	192	1
HLD	41	0	1	96
TAP	41	96	0
HLD	41	192	6	96
TAP	41	288	7
STR	42	0	0
SI_	42	0	0	96	144	5
STR	42	0	1
SI_	42	0	1	96	144	4
HLD	43	0	1	96
HLD	43	0	7	96
HLD	43	192	0	96
HLD	43	192	6	96
TAP	44	0	1
TAP	44	0	7
TAP	44	96	0
TAP	44	96	6
TAP	44	192	1
TAP	44	192	7
TAP	45	0	2
TAP	45	96	1
TAP	45	96	3
TAP	45	192	5
TAP	45	288	4
TAP	45	288	6
TAP	46	0	7
TAP	46	96	0
TAP	46	192	1
TAP	46	192	6
TAP	47	0	0
TAP	47	96	1
TAP	47	192	2
TAP	47	288	3
TAP	48	0	4
TAP	48	96	5
TAP	48	192	6
TAP	48	192	7
HLD	49	0	5	96
TAP	49	96	4
HLD	49	192	2	96
TAP	49	288	3
TAP	50	0	3
TAP	50	0	4
TAP	50	96	2
TAP	50	96	5
BRK	50	192	1
BRK	50	192	6
HLD	51	0	0	96
HLD	51	0	6	96
HLD	51	192	1	96
HLD	51	192	7	96
TAP	52	0	0
TAP	52	0	6
TAP	52	96	1
TAP	52	96	7
TAP	52	192	0
TAP	52	192	6
STR	53	0	0
SXL	53	0	0	96	480	3
STR	53	0	7
SXR	53	0	7	96	480	4
TAP	55	0	2
TAP	55	96	3
TAP	55	192	1
TAP	55	192	4
TAP	56	0	5
TAP	56	96	4
TAP	56	192	3
TAP	56	192	6
HLD	57	0	5	192
TAP	57	96	4
TAP	57	192	4
HLD	58	0	2	192
TAP	58	96	3
TAP	58	192	3
HLD	59	0	1	192
TAP	59	96	0
TAP	59	192	0
TAP	60	0	6
TAP	60	96	7
TAP	60	192	0
TAP	60	192	5
HLD	61	0	5	192
TAP	61	96	4
TAP	61	192	3
HLD	62	0	2	192
TAP	62	96	3
TAP	62	192	4
HLD	63	0	6	192
TAP	63	96	5
TAP	63	192	4
HLD	64	0	1	192
TAP	64	96	2
TAP	64	192	3
TAP	65	0	0
TAP	65	0	7
TAP	65	96	0
TAP	65	96	7
TAP	65	192	1
TAP	65	192	6
HLD	66	0	2	384
HLD	67	0	3	384
HLD	68	0	4	384
TAP	69	0	5
TAP	69	192	4
TAP	69	192	5
HLD	70	0	5	384
HLD	71	0	4	384
HLD	72	0	3	384
TAP	73	0	2
TAP	74	0	1
TAP	74	96	0
TAP	74	96	2
TAP	74	192	6
TAP	74	288	5
TAP	74	288	7
TAP	75	0	0
TAP	75	0	1
TAP	75	96	2
TAP	75	96	7
TAP	75	192	3
TAP	75	192	6
TAP	76	0	6
TAP	76	0	7
TAP	76	96	6
TAP	76	96	7
TAP	76	192	4
TAP	76	192	5
TAP	76	288	4
TAP	76	288	5
TAP	77	0	2
TAP	77	0	3
TAP	77	96	2
TAP	77	96	3
TAP	77	192	0
TAP	77	192	1
HLD	78	0	2	96
TAP	78	96	3
HLD	78	192	5	96
TAP	78	288	4
TAP	79	0	2
TAP	79	0	5
TAP	79	96	1
TAP	79	96	6
BRK	79	192	0
BRK	79	192	7
HLD	80	0	0	96
HLD	80	0	6	96
HLD	80	192	1	96
HLD	80	192	7	96
TAP	81	0	0
TAP	81	0	6
TAP	81	96	1
TAP	81	96	7
TAP	81	192	0
TAP	81	192	6
TAP	81	288	1
TAP	81	288	7
STR	82	0	0
SXL	82	0	0	96	480	3
STR	82	0	7
SXR	82	0	7	96	480	4
TAP	84	0	4
TAP	84	96	4
TAP	84	192	3
TAP	84	288	3
TAP	85	0	4
TAP	85	96	3
TAP	85	192	2
TAP	85	192	5
TAP	86	0	1
TAP	86	96	0
TAP	86	192	1
TAP	86	288	2
TAP	86	288	7
TAP	87	0	6
TAP	87	96	7
TAP	87	192	0
TAP	87	192	5
TAP	88	0	6
TAP	88	96	7
TAP	88	192	6
TAP	88	288	0
TAP	88	288	5
TAP	89	0	1
TAP	89	96	0
TAP	89	192	1
BRK	89	288	2
BRK	89	288	7

T_REC_TAP	267
T_REC_BRK	8
T_REC_XTP	0
T_REC_HLD	41
T_REC_XHO	0
T_REC_STR	6
T_REC_BST	0
T_REC_XST	0
T_REC_TTP	0
T_REC_THO	0
T_REC_SLD	6
T_REC_ALL	328
T_NUM_TAP	273
T_NUM_BRK	8
T_NUM_HLD	41
T_NUM_SLD	6
T_NUM_ALL	328
T_JUDGE_TAP	281
T_JUDGE_HLD	144
T_JUDGE_SLD	6
T_JUDGE_ALL	431
TTM_EACHPAIRS	85
TTM_SCR_TAP	136500
TTM_SCR_BRK	20800
TTM_SCR_HLD	41000
TTM_SCR_SLD	9000
TTM_SCR_ALL	207300
TTM_SCR_S	200350
TTM_SCR_SS	206500
TTM_RAT_ACV	10038

