VERSION	0.00.00	1.03.00
FES_MODE	0
BPM_DEF	152.000	152.000	152.000	152.000
MET_DEF	4	4
RESOLUTION	384
CLK_DEF	384
COMPATIBLE_CODE	MA2

BPM	0	0	152.000
MET	0	0	4	4

TAP	5	0	0
TAP	5	192	0
TAP	6	0	1
TAP	6	192	1
TAP	7	0	2
TAP	7	192	2
TAP	8	0	3
TAP	8	192	3
TAP	9	0	4
TAP	9	192	4
TAP	10	0	5
TAP	10	192	5
TAP	11	0	6
TAP	11	192	6
TAP	12	0	7
BRK	12	192	7
TAP	13	0	7
TAP	13	192	7
TAP	14	0	7
TAP	14	96	7
TAP	14	192	7
TAP	15	0	6
TAP	15	192	6
TAP	16	0	6
TAP	16	96	6
TAP	16	192	6
TAP	17	0	5
TAP	17	192	5
TAP	18	0	5
TAP	18	96	5
TAP	18	192	5
HLD	19	0	4	192
TAP	20	0	3
TAP	20	96	4
TAP	20	192	3
TAP	21	0	3
TAP	21	0	4
TAP	21	192	3
TAP	22	0	2
TAP	22	192	2
TAP	22	192	3
TAP	23	0	4
TAP	23	192	4
TAP	24	0	5
TAP	24	192	4
TAP	24	192	5
TAP	25	0	3
TAP	25	192	3
TAP	26	0	3
TAP	26	96	3
TAP	26	192	3
TAP	27	0	2
TAP	27	192	2
TAP	28	0	2
TAP	28	96	2
TAP	28	192	2
TAP	29	0	1
TAP	29	192	1
TAP	30	0	1
TAP	30	96	1
BRK	30	192	1
HLD	31	0	0	192
TAP	32	0	7
TAP	32	96	0
TAP	32	192	7
STR	33	0	0
SI_	33	0	0	96	288	3
STR	35	0	7
SI_	35	0	7	96	288	4
TAP	37	0	0
TAP	37	96	0
TAP	37	192	0
TAP	38	0	1
TAP	38	96	1
TAP	38	192	1
TAP	39	0	2
TAP	39	96	2
TAP	39	192	3
TAP	39	288	3
TAP	40	0	4
TAP	40	96	3
TAP	40	192	4
TAP	41	0	4
TAP	41	96	4
TAP	41	192	4
TAP	42	0	5
TAP	42	96	5
TAP	42	192	5
TAP	43	0	6
TAP	43	96	6
TAP	43	192	7
TAP	43	288	7
TAP	44	0	0
TAP	44	96	7
BRK	44	192	0
TAP	45	0	7
TAP	45	96	7
TAP	45	192	7
TAP	46	0	6
TAP	46	96	6
TAP	46	192	6
TAP	47	0	5
TAP	47	96	5
TAP	47	192	4
TAP	47	288	4
TAP	48	0	3
TAP	48	96	4
TAP	48	192	3
TAP	49	0	3
TAP	49	96	3
TAP	49	192	3
TAP	50	0	2
TAP	50	96	2
BRK	50	192	2
TAP	51	0	1
TAP	51	96	1
TAP	51	192	0
TAP	51	288	0
TAP	52	0	7
TAP	52	96	0
TAP	52	192	7
STR	53	0	0
SI_	53	0	0	96	288	3
STR	55	0	7
SI_	55	0	7	96	288	4
TAP	57	0	3
TAP	57	96	3
TAP	57	192	3
TAP	57	192	4
TAP	58	0	4
TAP	58	96	4
TAP	58	192	3
TAP	58	192	4
TAP	59	0	2
TAP	59	96	2
TAP	59	192	3
TAP	59	192	4
TAP	60	0	5
TAP	60	96	5
TAP	60	192	3
TAP	60	192	4
TAP	61	0	3
TAP	61	96	3
TAP	61	192	2
TAP	61	288	2
TAP	62	0	3
TAP	62	96	3
TAP	62	192	4
TAP	62	288	4
TAP	63	0	5
TAP	63	96	5
TAP	63	192	4
TAP	63	288	4
TAP	64	0	3
TAP	64	96	3
TAP	64	192	2
TAP	64	192	5
HLD	65	0	3	192
HLD	65	0	4	192
TAP	66	0	3
TAP	67	0	3
TAP	68	0	2
TAP	69	0	2
TAP	70	0	1
TAP	70	192	1
TAP	71	0	0
TAP	71	192	0
TAP	72	0	7
TAP	72	192	7
TAP	73	0	0
TAP	73	96	7
BRK	73	192	0
TAP	74	0	7
TAP	74	96	7
TAP	74	192	7
TAP	75	0	6
TAP	75	96	6
TAP	75	192	6
TAP	75	192	7
TAP	76	0	5
TAP	76	96	5
TAP	76	192	4
TAP	76	288	4
TAP	77	0	3
TAP	77	96	4
TAP	77	192	3
TAP	78	0	3
TAP	78	96	3
TAP	78	192	3
TAP	79	0	2
TAP	79	96	2
BRK	79	192	2
BRK	79	192	3
TAP	80	0	1
TAP	80	96	1
TAP	80	192	0
TAP	80	288	0
TAP	81	0	0
TAP	81	0	7
TAP	81	96	0
TAP	81	96	7
BRK	81	192	0
BRK	81	192	7
STR	82	0	7
SI_	82	0	7	96	288	4
STR	84	0	0
SI_	84	0	0	96	288	3
TAP	86	0	7
TAP	86	192	6
TAP	87	0	5
TAP	87	192	4
TAP	88	0	3
TAP	88	192	2
TAP	89	0	1
TAP	89	192	0

T_REC_TAP	190
T_REC_BRK	9
T_REC_XTP	0
T_REC_HLD	4
T_REC_XHO	0
T_REC_STR	6
T_REC_BST	0
T_REC_XST	0
T_REC_TTP	0
T_REC_THO	0
T_REC_SLD	6
T_REC_ALL	215
T_NUM_TAP	196
T_NUM_BRK	9
T_NUM_HLD	4
T_NUM_SLD	6
T_NUM_ALL	215
T_JUDGE_TAP	205
T_JUDGE_HLD	16
T_JUDGE_SLD	6
T_JUDGE_ALL	227
TTM_EACHPAIRS	14
TTM_SCR_TAP	98000
TTM_SCR_BRK	23400
TTM_SCR_HLD	4000
TTM_SCR_SLD	9000
TTM_SCR_ALL	134400
TTM_SCR_S	129500
TTM_SCR_SS	133500
TTM_RAT_ACV	10067

