VERSION	0.00.00	1.03.00
FES_MODE	0
BPM_DEF	200.000	200.000	200.000	200.000
MET_DEF	4	4
RESOLUTION	384
CLK_DEF	384
COMPATIBLE_CODE	MA2

BPM	0	0	200.000
MET	0	0	4	3

TAP	3	0	3
TAP	3	0	4
TAP	3	96	1
TAP	3	144	0
TAP	3	144	2
TAP	3	240	6
TAP	3	288	5
TAP	3	288	7
TAP	4	0	3
TAP	4	0	4
TAP	4	48	2
TAP	4	48	5
TAP	4	192	3
TAP	4	192	6
TAP	4	240	4
TAP	4	288	5
TAP	4	336	1
TAP	4	336	4
TAP	5	0	3
TAP	5	48	2
TAP	5	96	3
TAP	5	96	4
TAP	5	192	1
TAP	5	192	6
TAP	5	240	1
TAP	5	240	6
TAP	6	0	3
TAP	6	0	4
TAP	6	96	6
TAP	6	144	5
TAP	6	144	7
TAP	6	240	1
TAP	6	288	0
TAP	6	288	2
TAP	7	0	3
TAP	7	0	4
TAP	7	48	2
TAP	7	48	5
TAP	7	192	2
TAP	7	192	7
TAP	7	240	0
TAP	7	288	1
TAP	7	336	0
TAP	7	336	5
TAP	8	0	7
TAP	8	48	6
TAP	8	96	2
TAP	8	96	5
TAP	8	144	3
TAP	8	192	4
TAP	8	240	1
TAP	8	240	6
TAP	9	0	3
TAP	9	0	4
TAP	9	96	0
TAP	9	96	1
TAP	9	144	2
TAP	9	144	7
TAP	9	240	3
TAP	9	240	4
TAP	9	288	5
TAP	9	304	4
TAP	9	320	5
TAP	9	336	4
TAP	10	0	6
TAP	10	48	0
TAP	10	48	5
TAP	10	192	3
TAP	10	192	6
TAP	10	240	4
TAP	10	288	5
TAP	10	336	1
TAP	10	336	4
TAP	11	0	3
TAP	11	48	2
TAP	11	96	3
TAP	11	96	4
TAP	11	192	1
TAP	11	192	6
TAP	11	240	1
TAP	11	240	6
TAP	12	0	3
TAP	12	0	4
TAP	12	96	6
TAP	12	96	7
TAP	12	144	0
TAP	12	144	5
TAP	12	240	3
TAP	12	240	4
TAP	12	288	2
TAP	12	304	3
TAP	12	320	2
TAP	12	336	3
TAP	13	0	1
TAP	13	48	2
TAP	13	48	7
TAP	13	192	0
TAP	13	192	4
TAP	13	240	1
TAP	13	240	5
TAP	13	288	2
TAP	13	288	6
TAP	13	336	3
TAP	13	336	7
TAP	14	48	0
TAP	14	48	7
STR	14	96	1
SI_	14	96	1	96	48	5
TAP	14	96	6
TAP	14	192	1
STR	14	192	6
SI_	14	192	6	96	48	2
TAP	14	288	0
TAP	14	288	6
STR	15	0	1
SI_	15	0	1	96	48	4
TAP	15	0	6
TAP	15	96	1
STR	15	96	7
SI_	15	96	7	96	48	3
STR	15	192	0
SI_	15	192	0	96	48	4
TAP	15	192	7
TAP	15	288	0
STR	15	288	6
SUL	15	288	6	96	96	3
TAP	16	0	3
TAP	16	0	6
STR	16	192	6
SI_	16	192	6	96	48	3
STR	16	288	0
SI_	16	288	0	96	48	4
TAP	16	288	6
TAP	17	0	0
STR	17	0	7
SI_	17	0	7	96	48	3
STR	17	96	1
SXR	17	96	1	96	96	4
TAP	17	96	7
TAP	17	192	1
TAP	17	192	4
STR	18	0	1
SI_	18	0	1	96	48	4
TAP	18	48	1
TAP	18	96	1
STR	18	96	7
SI_	18	96	7	96	48	3
TAP	18	144	7
STR	18	192	0
SI_	18	192	0	96	48	4
TAP	18	192	7
TAP	18	288	0
STR	18	288	6
SXL	18	288	6	96	96	2
TAP	19	0	3
TAP	19	0	6
STR	19	192	6
SI_	19	192	6	96	48	3
TAP	19	240	6
STR	19	288	0
SI_	19	288	0	96	48	4
TAP	19	288	6
TAP	19	336	0
TAP	20	0	0
STR	20	0	7
SI_	20	0	7	96	48	3
STR	20	96	1
SI_	20	96	1	96	48	5
TAP	20	96	7
TAP	20	192	1
STR	20	192	6
SI_	20	192	6	96	48	2
TAP	20	288	2
TAP	20	288	6
STR	21	0	1
SI_	21	0	1	96	48	4
TAP	21	48	1
TAP	21	96	1
STR	21	96	7
SI_	21	96	7	96	48	3
TAP	21	144	7
STR	21	192	0
SI_	21	192	0	96	48	4
TAP	21	192	7
TAP	21	288	0
STR	21	288	5
SI_	21	288	5	96	48	0
STR	22	0	1
SI_	22	0	1	96	48	4
TAP	22	0	5
TAP	22	96	1
STR	22	96	6
SI_	22	96	6	96	48	2
STR	22	192	3
SI_	22	192	3	96	48	0
TAP	22	192	6
TAP	22	288	3
STR	22	288	5
SI_	22	288	5	96	48	2
STR	23	0	0
SI_	23	0	0	96	48	4
TAP	23	0	5
TAP	23	96	0
STR	23	96	6
SI_	23	96	6	96	48	3
STR	23	192	0
SF_	23	192	0	96	48	4
TAP	23	192	6
TAP	23	288	0
TAP	24	0	2
TAP	24	0	6
TAP	24	48	2
TAP	24	48	6
TAP	24	96	3
TAP	24	96	7
TAP	24	144	3
TAP	24	144	7
TAP	24	192	0
TAP	24	192	4
TAP	24	240	0
TAP	24	240	4
TAP	24	288	3
TAP	24	288	7
TAP	24	336	3
TAP	24	336	7
TAP	25	0	2
TAP	25	0	6
TAP	25	48	2
TAP	25	48	6
TAP	25	96	1
TAP	25	96	5
TAP	25	144	1
TAP	25	144	5
TAP	25	192	0
TAP	25	216	4
TAP	25	240	1
TAP	25	264	5
TAP	25	288	2
TAP	25	312	6
TAP	25	336	3
TAP	25	360	7
TAP	26	0	2
TAP	26	24	6
TAP	26	48	1
TAP	26	72	5
STR	26	96	0
SI_	26	96	0	96	48	3
STR	26	96	4
SI_	26	96	4	96	48	7
STR	26	192	0
SI_	26	192	0	96	48	5
STR	26	192	4
SI_	26	192	4	96	48	1
TAP	26	288	0
STR	26	288	4
SI_	26	288	4	96	48	0
HLD	27	0	1	576
TAP	27	0	4
TAP	27	288	2
HLD	28	192	6	576
TAP	29	96	5
HLD	30	0	2	576
TAP	30	288	3
STR	31	192	4
SUL	31	192	4	96	384	3
HLD	33	0	2	192
TAP	33	0	3
TAP	33	192	3
TAP	33	288	4
HLD	33	288	5	192
TAP	34	96	6
TAP	34	144	5
HLD	34	192	4	96
HLD	34	288	3	96
HLD	35	0	2	96
HLD	35	96	3	96
HLD	35	192	4	96
HLD	35	288	5	96
HLD	36	0	6	288
HLD	36	288	4	288
STR	37	192	3
SUR	37	192	3	96	288	4
TAP	38	288	3
STR	38	288	7
SCL	38	288	7	96	48	5
TAP	38	336	2
HLD	39	0	1	96
STR	39	0	7
SI_	39	0	7	96	48	4
STR	39	96	7
SI_	39	96	7	96	48	3
TAP	39	192	0
STR	39	192	7
SCL	39	192	7	96	48	5
HLD	39	288	0	96
STR	39	288	7
SI_	39	288	7	96	48	4
STR	40	0	7
SI_	40	0	7	96	48	3
TAP	40	96	0
STR	40	96	7
SCR	40	96	7	96	48	1
TAP	40	144	0
TAP	40	192	5
STR	40	192	7
SI_	40	192	7	96	48	2
TAP	40	288	4
STR	40	288	7
SI_	40	288	7	96	48	3
TAP	41	0	5
STR	41	0	7
SCR	41	0	7	96	48	1
HLD	41	96	6	96
STR	41	96	7
SI_	41	96	7	96	48	2
STR	41	192	7
SI_	41	192	7	96	48	3
TAP	41	288	4
STR	41	288	7
SCL	41	288	7	96	48	5
TAP	41	336	4
TAP	42	0	1
STR	42	0	7
SI_	42	0	7	96	48	4
TAP	42	48	1
TAP	42	96	1
STR	42	96	7
SI_	42	96	7	96	48	3
TAP	42	144	1
STR	42	192	2
SI_	42	192	2	96	48	0
STR	42	192	7
SCL	42	192	7	96	48	5
TAP	42	240	1
STR	42	288	2
SI_	42	288	2	96	48	4
STR	42	288	7
SI_	42	288	7	96	48	4
STR	43	0	2
SI_	43	0	2	96	48	0
STR	43	0	7
SI_	43	0	7	96	48	3
TAP	43	96	2
TAP	43	96	7
HLD	43	192	1	96
TAP	43	192	5
TAP	43	288	4
TAP	43	336	3
TAP	43	336	5
TAP	44	0	2
TAP	44	0	6
TAP	44	48	1
TAP	44	48	7
TAP	44	96	0
TAP	44	96	6
TAP	44	144	2
TAP	44	144	4
TAP	44	192	1
TAP	44	192	7
TAP	44	240	3
TAP	44	240	5
STR	44	288	0
SCR	44	288	0	96	48	2
TAP	44	288	7
TAP	44	336	3
TAP	44	336	4
STR	45	0	0
SI_	45	0	0	96	48	3
HLD	45	0	5	96
STR	45	96	0
SI_	45	96	0	96	48	4
STR	45	192	0
SCL	45	192	0	96	48	6
TAP	45	192	5
STR	45	288	0
SI_	45	288	0	96	48	5
HLD	45	288	1	96
STR	46	0	0
SI_	46	0	0	96	48	4
STR	46	96	0
SCR	46	96	0	96	48	2
TAP	46	96	1
TAP	46	144	1
STR	46	192	0
SI_	46	192	0	96	48	3
TAP	46	192	5
STR	46	288	0
SI_	46	288	0	96	48	4
TAP	46	288	6
STR	47	0	0
SCL	47	0	0	96	48	6
TAP	47	0	7
STR	47	96	0
SI_	47	96	0	96	48	5
TAP	47	96	3
STR	47	192	0
SI_	47	192	0	96	48	4
TAP	47	192	2
STR	47	288	0
SCR	47	288	0	96	48	2
TAP	47	288	1
STR	48	0	0
SI_	48	0	0	96	48	3
TAP	48	0	5
TAP	48	48	5
STR	48	96	0
SI_	48	96	0	96	48	4
TAP	48	96	6
TAP	48	144	6
STR	48	192	0
SCL	48	192	0	96	48	6
TAP	48	192	7
TAP	48	240	7
STR	48	288	0
SI_	48	288	0	96	48	5
TAP	48	288	3
TAP	48	336	3
STR	49	0	0
SI_	49	0	0	96	48	4
TAP	49	0	2
TAP	49	48	2
TAP	49	96	0
TAP	49	96	1
TAP	49	144	1
TAP	49	192	1
TAP	49	216	4
TAP	49	240	2
TAP	49	264	3
TAP	49	288	0
TAP	49	312	5
TAP	49	336	2
TAP	49	360	3
TAP	50	0	7
TAP	50	16	6
TAP	50	32	7
TAP	50	48	6
TAP	50	64	7
TAP	50	80	6
TAP	50	96	0
TAP	50	96	5
HLD	50	144	0	48
TAP	50	144	1
TAP	50	156	2
TAP	50	168	3
TAP	50	180	4
TAP	50	192	5
TAP	50	240	6
HLD	50	240	7	48
TAP	50	252	5
TAP	50	264	4
TAP	50	276	3
TAP	50	288	2
TAP	51	0	1
STR	51	0	6
SXL	51	0	6	96	480	3
TAP	51	288	2
STR	52	192	1
SUR	52	192	1	96	480	4
TAP	53	96	6
STR	54	0	5
SUL	54	0	5	96	480	3
TAP	54	288	0
HLD	55	192	4	528
BRK	56	336	0
HLD	58	192	3	288
HLD	59	96	4	288
HLD	60	0	3	288
HLD	60	288	4	288
HLD	61	192	3	288
HLD	62	96	4	240
TAP	62	336	3
TAP	62	360	4
TAP	63	0	0
TAP	63	24	7
TAP	63	48	1
TAP	63	72	6
TAP	63	96	0
TAP	63	120	7
TAP	63	144	2
TAP	63	168	5
TAP	63	192	0
TAP	63	216	7
TAP	63	240	1
TAP	63	264	6
TAP	63	288	0
TAP	63	300	1
TAP	63	312	2
TAP	63	324	3
TAP	63	336	4
TAP	63	348	5
TAP	63	360	6
TAP	63	372	7
TAP	64	0	0
TAP	64	12	1
TAP	64	24	2
TAP	64	36	3
TAP	64	48	4
TAP	64	60	5
TAP	64	72	6
TAP	64	84	7
BRK	64	96	0
BRK	64	96	4
STR	64	192	0
SCR	64	192	0	96	48	4
TAP	64	192	7
TAP	64	288	0
TAP	64	288	4
TAP	64	336	5
TAP	65	0	6
TAP	65	96	0
STR	65	96	7
SCL	65	96	7	96	48	3
TAP	65	192	3
TAP	65	192	7
TAP	65	240	2
TAP	65	288	1
TAP	65	336	0
TAP	65	336	5
TAP	65	360	1
TAP	65	360	6
TAP	66	0	2
STR	66	0	7
SCL	66	0	7	96	48	3
TAP	66	96	1
TAP	66	96	7
TAP	66	144	0
TAP	66	192	7
TAP	66	288	1
TAP	66	288	6
TAP	66	336	3
TAP	66	336	4
TAP	67	0	1
TAP	67	24	7
TAP	67	48	2
TAP	67	72	0
TAP	67	96	3
TAP	67	144	2
TAP	67	144	7
TAP	67	168	1
TAP	67	168	6
STR	67	192	0
SCR	67	192	0	96	48	4
TAP	67	192	5
TAP	67	288	0
TAP	67	288	6
TAP	67	336	7
TAP	68	0	0
STR	68	96	6
SCL	68	96	6	96	48	2
TAP	68	96	7
TAP	68	192	1
TAP	68	192	6
TAP	68	240	0
TAP	68	288	7
TAP	68	336	1
TAP	68	336	4
TAP	68	360	2
TAP	68	360	5
STR	69	0	3
SCL	69	0	3	96	48	7
TAP	69	0	6
TAP	69	96	3
TAP	69	96	5
TAP	69	144	4
STR	69	192	3
SI_	69	192	3	96	48	7
TAP	69	288	3
STR	69	288	5
SI_	69	288	5	96	48	0
STR	70	0	2
SI_	70	0	2	96	48	7
TAP	70	0	5
TAP	70	96	2
TAP	70	96	6
STR	70	192	4
SCL	70	192	4	96	48	0
TAP	70	192	5
TAP	70	288	4
TAP	70	288	7
TAP	70	336	6
TAP	71	0	5
TAP	71	0	7
TAP	71	48	4
TAP	71	96	2
STR	71	96	3
SCR	71	96	3	96	48	7
TAP	71	192	0
TAP	71	192	3
TAP	71	240	1
TAP	71	288	0
TAP	71	288	2
TAP	71	336	3
STR	72	0	4
SCL	72	0	4	96	48	0
TAP	72	0	5
TAP	72	96	4
TAP	72	96	7
TAP	72	144	6
TAP	72	192	5
TAP	72	192	7
TAP	72	240	4
HLD	72	288	0	48
HLD	72	288	3	48
HLD	72	360	4	48
HLD	72	360	6	48
HLD	73	48	1	48
HLD	73	48	3	48
HLD	73	120	4	48
HLD	73	120	7	48
TAP	73	192	1
STR	73	192	4
SCL	73	192	4	96	48	0
TAP	73	288	4
TAP	73	288	6
TAP	73	336	5
TAP	74	0	3
TAP	74	0	7
TAP	74	48	4
STR	74	96	3
SCR	74	96	3	96	48	7
TAP	74	96	6
TAP	74	192	1
TAP	74	192	3
TAP	74	240	2
TAP	74	288	0
TAP	74	288	4
TAP	74	336	3
STR	75	0	0
SI_	75	0	0	96	48	4
TAP	75	48	0
STR	75	96	1
SI_	75	96	1	96	48	5
TAP	75	144	1
STR	75	192	2
SI_	75	192	2	96	48	6
TAP	75	240	2
STR	75	288	7
SI_	75	288	7	96	48	3
TAP	75	336	7
STR	76	0	6
SI_	76	0	6	96	48	2
TAP	76	48	6
STR	76	96	5
SI_	76	96	5	96	48	1
TAP	76	144	5
TAP	76	192	3
TAP	76	240	3
TAP	76	288	2
TAP	76	288	4
TAP	76	336	2
TAP	76	336	4
TAP	77	0	1
TAP	77	0	5
TAP	77	48	1
TAP	77	48	5
TAP	77	96	0
TAP	77	120	6
TAP	77	144	3
TAP	77	168	4
TAP	77	192	1
TAP	77	216	7
TAP	77	240	2
TAP	77	264	5
TAP	77	288	0
TAP	77	312	7
TAP	77	336	3
TAP	77	360	4
HLD	78	0	1	192
STR	78	0	6
SCR	78	0	6	96	864	5
TAP	78	288	6
TAP	79	0	6
TAP	79	96	7
HLD	79	192	0	96
TAP	80	0	0
TAP	80	48	0
HLD	80	96	1	192
STR	81	0	1
SCL	81	0	1	96	864	2
HLD	81	0	6	192
TAP	81	288	3
TAP	82	0	4
TAP	82	96	5
HLD	82	192	7	96
TAP	83	0	6
TAP	83	48	6
HLD	83	96	5	192
HLD	84	0	2	192
STR	84	0	7
SCR	84	0	7	96	864	6
TAP	84	288	7
TAP	85	0	7
TAP	85	96	0
HLD	85	192	1	96
TAP	86	0	2
TAP	86	48	2
HLD	86	96	3	192
HLD	87	0	7	480
HLD	87	288	0	192
TAP	88	192	3
TAP	88	216	4
TAP	88	240	3
TAP	88	264	4
TAP	88	288	3
TAP	88	312	4
TAP	88	336	3
TAP	88	360	4
TAP	89	0	3
TAP	89	24	4
TAP	89	48	3
TAP	89	72	4
STR	89	96	3
SI_	89	96	3	96	48	1
STR	89	96	4
SI_	89	96	4	96	48	6
STR	89	192	3
SI_	89	192	3	96	48	7
STR	89	192	4
SI_	89	192	4	96	48	0
TAP	89	288	3
TAP	89	288	4
TAP	90	0	1
TAP	90	24	6
TAP	90	48	1
TAP	90	72	6
TAP	90	96	0
TAP	90	120	7
TAP	90	144	0
TAP	90	168	7
TAP	90	192	1
TAP	90	216	6
TAP	90	240	1
TAP	90	264	6
TAP	90	288	0
TAP	90	312	1
TAP	90	336	2
TAP	90	360	3
TAP	91	0	7
TAP	91	24	6
TAP	91	48	5
TAP	91	72	4
TAP	91	96	0
TAP	91	120	1
TAP	91	144	2
TAP	91	168	3
TAP	91	192	5
TAP	91	216	2
TAP	91	240	5
TAP	91	264	2
TAP	91	288	4
TAP	91	312	3
TAP	91	336	4
TAP	91	360	3
TAP	92	0	5
TAP	92	24	2
TAP	92	48	5
TAP	92	72	2
TAP	92	96	4
TAP	92	120	5
TAP	92	144	6
TAP	92	168	7
TAP	92	192	3
TAP	92	216	2
TAP	92	240	1
TAP	92	264	0
TAP	92	288	4
TAP	92	312	5
TAP	92	336	6
TAP	92	360	7
TAP	93	0	3
TAP	93	24	6
TAP	93	48	3
TAP	93	72	6
TAP	93	96	2
TAP	93	120	5
TAP	93	144	2
TAP	93	168	5
TAP	93	192	1
TAP	93	216	4
TAP	93	240	1
TAP	93	264	4
TAP	93	288	0
TAP	93	312	1
TAP	93	336	2
TAP	93	360	3
TAP	94	0	7
TAP	94	24	6
TAP	94	48	5
TAP	94	72	4
TAP	94	96	0
TAP	94	120	1
TAP	94	144	2
TAP	94	168	3
TAP	94	192	5
TAP	94	216	2
TAP	94	240	5
TAP	94	264	2
TAP	94	288	6
TAP	94	312	3
TAP	94	336	6
TAP	94	360	3
TAP	95	0	7
TAP	95	24	4
TAP	95	48	7
TAP	95	72	4
TAP	95	96	7
TAP	95	120	6
TAP	95	144	5
TAP	95	168	4
TAP	95	192	3
TAP	95	192	7
TAP	95	216	2
TAP	95	240	1
TAP	95	264	0
TAP	95	288	3
TAP	95	288	7
TAP	95	312	6
TAP	95	336	5
TAP	95	360	4
TAP	96	0	2
TAP	96	24	6
TAP	96	48	1
TAP	96	72	5
TAP	96	96	0
TAP	96	120	4
TAP	96	144	0
TAP	96	168	4
TAP	96	192	1
TAP	96	216	5
TAP	96	240	2
TAP	96	264	6
TAP	96	288	3
TAP	96	312	2
TAP	96	336	1
TAP	96	360	0
TAP	97	0	3
TAP	97	0	7
TAP	97	24	6
TAP	97	48	5
TAP	97	72	4
TAP	97	96	3
TAP	97	96	7
TAP	97	120	2
TAP	97	120	6
TAP	97	144	1
TAP	97	144	5
TAP	97	168	0
TAP	97	168	4
TAP	97	192	3
TAP	97	216	7
TAP	97	240	4
TAP	97	264	0
TAP	97	288	5
TAP	97	312	1
TAP	97	336	6
TAP	97	360	2
TAP	98	0	5
TAP	98	24	1
TAP	98	48	4
TAP	98	72	0
TAP	98	96	3
TAP	98	120	4
TAP	98	144	5
TAP	98	168	6
TAP	98	192	3
TAP	98	192	7
TAP	98	216	0
TAP	98	240	1
TAP	98	264	2
TAP	98	288	3
TAP	98	288	7
TAP	98	312	0
TAP	98	312	4
TAP	98	336	1
TAP	98	336	5
TAP	98	360	2
TAP	98	360	6
STR	99	0	3
SCL	99	0	3	96	48	7
STR	99	0	7
SCL	99	0	7	96	48	3
STR	99	96	3
SV_	99	96	3	96	48	5
STR	99	96	7
SV_	99	96	7	96	48	1
STR	99	288	0
SCR	99	288	0	96	48	4
STR	99	288	4
SCR	99	288	4	96	48	0
STR	100	0	0
SV_	100	0	0	96	48	6
STR	100	0	4
SV_	100	0	4	96	48	2
TAP	100	192	3
TAP	100	216	4
TAP	100	240	3
TAP	100	264	4
TAP	100	288	2
TAP	100	312	5
TAP	100	336	2
TAP	100	360	5
TAP	101	0	1
TAP	101	24	6
TAP	101	48	1
TAP	101	72	6
TAP	101	96	0
TAP	101	96	7
TAP	101	144	6
HLD	101	144	7	48
TAP	101	156	5
TAP	101	168	4
TAP	101	180	3
TAP	101	192	2
HLD	101	240	0	48
TAP	101	240	1
TAP	101	252	2
TAP	101	264	3
TAP	101	276	4
TAP	101	288	5
TAP	102	0	1
TAP	102	24	3
TAP	102	48	2
TAP	102	72	6
TAP	102	96	4
TAP	102	120	5
TAP	102	144	1
TAP	102	168	3
TAP	102	192	2
TAP	102	216	6
TAP	102	240	4
TAP	102	264	5
TAP	102	288	0
TAP	102	312	2
TAP	102	336	1
TAP	102	360	7
TAP	103	0	5
TAP	103	24	6
TAP	103	48	0
TAP	103	72	2
TAP	103	96	1
TAP	103	120	7
TAP	103	144	5
TAP	103	168	6
TAP	103	192	1
TAP	103	208	2
TAP	103	224	3
TAP	103	240	6
TAP	103	256	5
TAP	103	272	4
TAP	103	288	0
TAP	103	304	1
TAP	103	320	2
TAP	103	336	7
TAP	103	352	6
TAP	103	368	5
TAP	104	0	1
TAP	104	16	2
TAP	104	32	3
TAP	104	48	4
TAP	104	64	5
TAP	104	80	6
STR	104	96	0
SI_	104	96	0	96	48	5
STR	104	96	7
SI_	104	96	7	96	48	5
STR	104	192	0
SI_	104	192	0	96	48	2
STR	104	192	7
SI_	104	192	7	96	48	2
STR	104	288	0
SI_	104	288	0	96	48	4
SF_	104	288	0	96	48	4
TAP	104	288	7
BRK	105	0	0

T_REC_TAP	682
T_REC_BRK	4
T_REC_XTP	0
T_REC_HLD	49
T_REC_XHO	0
T_REC_STR	119
T_REC_BST	0
T_REC_XST	0
T_REC_TTP	0
T_REC_THO	0
T_REC_SLD	120
T_REC_ALL	974
T_NUM_TAP	801
T_NUM_BRK	4
T_NUM_HLD	49
T_NUM_SLD	120
T_NUM_ALL	974
T_JUDGE_TAP	805
T_JUDGE_HLD	182
T_JUDGE_SLD	120
T_JUDGE_ALL	1107
TTM_EACHPAIRS	209
TTM_SCR_TAP	400500
TTM_SCR_BRK	10400
TTM_SCR_HLD	49000
TTM_SCR_SLD	180000
TTM_SCR_ALL	639900
TTM_SCR_S	620350
TTM_SCR_SS	639500
TTM_RAT_ACV	10006

