VERSION	0.00.00	1.03.00
FES_MODE	0
BPM_DEF	200.000	200.000	200.000	200.000
MET_DEF	4	4
RESOLUTION	384
CLK_DEF	384
COMPATIBLE_CODE	MA2

BPM	0	0	200.000
MET	0	0	4	3

HLD	3	0	4	144
TAP	3	96	3
HLD	3	144	3	144
TAP	3	240	4
HLD	3	288	4	144
TAP	4	0	3
HLD	4	48	3	144
STR	4	192	4
SCR	4	192	4	96	48	7
STR	4	336	1
SCR	4	336	1	96	48	4
TAP	5	96	0
HLD	6	0	3	144
TAP	6	96	4
HLD	6	144	4	144
TAP	6	240	3
HLD	6	288	3	144
TAP	7	0	4
HLD	7	48	4	144
STR	7	192	3
SCL	7	192	3	96	48	0
STR	7	336	6
SCL	7	336	6	96	48	3
TAP	8	96	7
TAP	9	0	0
TAP	9	0	4
TAP	9	96	1
TAP	9	96	5
TAP	9	192	2
TAP	9	192	6
TAP	9	288	3
TAP	9	288	7
TAP	10	0	0
TAP	10	0	4
TAP	10	48	0
TAP	10	48	4
TAP	10	96	3
TAP	10	96	7
TAP	10	192	2
TAP	10	192	6
TAP	10	288	1
TAP	10	288	5
TAP	11	0	0
TAP	11	0	4
TAP	11	96	3
TAP	11	96	7
TAP	11	192	0
TAP	11	192	4
TAP	11	240	0
TAP	11	240	4
TAP	11	288	3
TAP	11	288	7
TAP	12	0	0
TAP	12	0	4
TAP	12	96	1
TAP	12	96	5
TAP	12	192	2
TAP	12	192	6
TAP	12	288	3
TAP	12	288	7
TAP	13	0	1
TAP	13	0	6
TAP	13	48	1
TAP	13	48	6
TAP	13	96	2
TAP	13	96	5
TAP	13	192	3
TAP	13	192	4
TAP	13	240	2
TAP	13	240	5
TAP	13	288	1
TAP	13	288	6
TAP	13	336	0
TAP	13	336	7
TAP	14	48	2
TAP	14	48	5
TAP	14	96	2
TAP	14	96	5
TAP	14	192	3
TAP	14	192	4
TAP	14	288	0
TAP	14	288	7
STR	15	0	1
SI_	15	0	1	96	48	4
STR	15	96	0
SI_	15	96	0	96	48	5
STR	15	288	7
SI_	15	288	7	96	48	2
STR	16	0	6
SI_	16	0	6	96	48	3
STR	16	192	0
SI_	16	192	0	96	48	4
STR	16	288	7
SI_	16	288	7	96	48	3
STR	17	96	1
SI_	17	96	1	96	48	5
STR	17	192	6
SI_	17	192	6	96	48	2
STR	18	0	1
SCR	18	0	1	96	48	4
STR	18	96	0
SCL	18	96	0	96	48	5
STR	18	288	0
SCR	18	288	0	96	48	3
STR	19	0	7
SCL	19	0	7	96	48	4
STR	19	192	7
SCR	19	192	7	96	48	2
STR	19	288	6
SCL	19	288	6	96	48	3
TAP	20	96	0
TAP	20	96	2
TAP	20	192	5
TAP	20	192	7
TAP	20	288	1
TAP	20	288	6
STR	21	0	0
SI_	21	0	0	96	48	5
STR	21	96	5
SI_	21	96	5	96	48	0
STR	21	288	6
SI_	21	288	6	96	48	3
STR	22	0	3
SI_	22	0	3	96	48	6
STR	22	192	1
SI_	22	192	1	96	48	4
STR	22	288	4
SI_	22	288	4	96	48	1
STR	23	96	7
SI_	23	96	7	96	48	2
STR	23	192	2
SI_	23	192	2	96	48	7
STR	24	0	0
SI_	24	0	0	96	48	5
STR	24	96	6
SI_	24	96	6	96	48	3
STR	24	192	1
SI_	24	192	1	96	48	4
STR	24	288	7
SI_	24	288	7	96	48	2
STR	25	0	0
SI_	25	0	0	96	48	4
TAP	25	96	7
STR	25	192	6
SI_	25	192	6	96	48	3
TAP	25	240	6
STR	25	288	0
SI_	25	288	0	96	48	4
TAP	25	336	0
STR	26	0	7
SI_	26	0	7	96	48	3
TAP	26	48	7
STR	26	96	1
SI_	26	96	1	96	48	5
TAP	26	144	1
TAP	26	192	6
TAP	26	240	6
BRK	26	288	0
HLD	27	0	6	864
TAP	27	192	4
HLD	27	288	4	192
TAP	28	192	4
TAP	28	288	3
TAP	29	0	2
HLD	29	96	1	864
TAP	29	288	3
HLD	30	0	3	192
TAP	30	288	3
TAP	31	0	4
TAP	31	96	5
STR	31	192	6
SUL	31	192	6	96	144	2
TAP	31	288	7
TAP	32	0	0
STR	32	96	1
SUL	32	96	1	96	144	5
TAP	32	192	2
TAP	32	288	3
TAP	33	0	4
TAP	33	192	3
TAP	33	192	4
TAP	33	288	2
TAP	33	288	5
TAP	34	192	2
TAP	34	192	3
TAP	34	336	3
TAP	34	336	4
TAP	35	96	4
TAP	35	96	5
HLD	36	0	4	288
TAP	36	0	5
HLD	36	288	3	288
TAP	37	192	2
TAP	37	336	3
STR	37	336	4
SUL	37	336	4	96	240	3
TAP	39	0	0
TAP	39	0	7
STR	39	96	4
SI_	39	96	4	96	48	0
TAP	39	96	5
STR	39	192	7
SI_	39	192	7	96	48	3
TAP	39	288	2
TAP	40	0	1
TAP	40	0	6
TAP	40	96	3
TAP	40	96	4
TAP	40	192	0
TAP	40	192	7
TAP	40	288	2
STR	40	288	3
SI_	40	288	3	96	48	7
STR	41	0	0
SI_	41	0	0	96	48	4
TAP	41	96	5
TAP	41	192	1
TAP	41	192	6
TAP	41	288	3
TAP	41	288	4
TAP	42	0	0
TAP	42	48	7
TAP	42	96	1
TAP	42	144	6
TAP	42	192	2
TAP	42	240	5
STR	42	288	3
SXR	42	288	3	96	48	1
STR	43	0	7
SXR	43	0	7	96	48	5
TAP	43	192	0
TAP	43	240	1
TAP	43	288	2
TAP	43	336	3
TAP	44	0	4
TAP	44	0	5
TAP	44	96	6
TAP	44	144	5
TAP	44	192	4
TAP	44	240	3
TAP	44	288	2
TAP	44	336	1
TAP	45	0	0
TAP	45	0	7
TAP	45	96	2
STR	45	96	3
SI_	45	96	3	96	48	7
STR	45	192	0
SI_	45	192	0	96	48	4
TAP	45	288	5
TAP	46	0	1
TAP	46	0	6
TAP	46	96	3
TAP	46	96	4
TAP	46	192	0
TAP	46	192	7
STR	46	288	4
SI_	46	288	4	96	48	0
TAP	46	288	5
STR	47	0	7
SI_	47	0	7	96	48	3
TAP	47	96	2
TAP	47	192	1
TAP	47	192	6
TAP	47	288	0
TAP	47	288	7
TAP	48	0	3
TAP	48	48	4
TAP	48	96	3
TAP	48	144	5
TAP	48	192	3
TAP	48	240	6
TAP	48	288	2
TAP	48	336	7
TAP	49	0	1
TAP	49	48	7
TAP	49	96	0
TAP	49	192	1
TAP	49	192	3
TAP	49	240	2
TAP	49	288	2
TAP	49	336	2
TAP	50	0	1
TAP	50	0	3
TAP	50	96	4
TAP	50	96	6
TAP	50	144	5
TAP	50	192	5
TAP	50	240	5
TAP	50	288	4
STR	50	288	6
SSL	50	288	6	96	240	2
TAP	51	288	0
TAP	52	192	6
TAP	53	96	2
STR	54	0	4
SCL	54	0	4	96	96	1
STR	54	288	6
SUL	54	288	6	96	96	2
STR	55	192	0
SCL	55	192	0	96	384	1
BRK	57	0	0
TAP	58	192	2
TAP	59	96	4
TAP	60	0	3
TAP	60	288	5
TAP	61	192	1
TAP	61	192	2
TAP	62	96	5
TAP	62	96	6
TAP	63	0	0
TAP	63	24	7
TAP	63	48	0
TAP	63	72	7
TAP	63	96	0
TAP	63	120	7
TAP	63	144	0
TAP	63	168	7
TAP	63	192	0
TAP	63	216	7
TAP	63	240	0
TAP	63	264	7
TAP	63	288	0
TAP	63	312	1
TAP	63	336	2
TAP	63	360	3
TAP	64	0	4
TAP	64	24	5
TAP	64	48	6
TAP	64	72	7
BST	64	96	0
SI_	64	96	0	96	48	4
TAP	64	192	7
TAP	64	288	6
TAP	65	0	5
TAP	65	48	5
TAP	65	96	4
TAP	65	96	6
TAP	65	192	1
TAP	65	192	3
TAP	65	288	7
TAP	65	336	7
TAP	66	0	0
STR	66	0	6
SI_	66	0	6	96	48	3
STR	66	96	2
SI_	66	96	2	96	48	7
TAP	66	192	5
TAP	66	288	4
TAP	66	336	4
TAP	67	0	0
TAP	67	48	0
TAP	67	96	1
STR	67	96	7
SI_	67	96	7	96	48	3
TAP	67	192	0
TAP	67	288	1
TAP	68	0	2
TAP	68	48	2
TAP	68	96	1
TAP	68	96	3
TAP	68	192	4
TAP	68	192	6
TAP	68	288	0
TAP	68	336	0
TAP	69	0	6
TAP	69	48	5
TAP	69	96	4
TAP	69	144	1
TAP	69	192	2
TAP	69	240	3
STR	69	288	4
SI_	69	288	4	96	48	0
TAP	69	288	5
STR	70	0	7
SI_	70	0	7	96	48	3
TAP	70	96	2
STR	70	192	1
SI_	70	192	1	96	48	5
TAP	70	192	6
HLD	70	288	0	96
TAP	71	0	4
TAP	71	48	3
TAP	71	48	7
TAP	71	96	2
STR	71	96	6
SI_	71	96	6	96	48	2
HLD	71	192	7	96
TAP	71	288	3
TAP	71	336	0
TAP	71	336	4
STR	72	0	1
SI_	72	0	1	96	48	5
TAP	72	0	5
HLD	72	96	0	96
TAP	72	192	4
TAP	72	240	3
TAP	72	240	7
HLD	72	288	2	48
HLD	72	288	6	48
HLD	72	360	0	48
HLD	72	360	4	48
HLD	73	48	3	48
HLD	73	48	7	48
HLD	73	120	1	48
HLD	73	120	5	48
TAP	73	192	3
TAP	73	192	7
TAP	73	288	4
TAP	73	288	5
TAP	74	0	0
TAP	74	0	1
TAP	74	48	2
TAP	74	48	7
TAP	74	96	3
TAP	74	96	6
TAP	74	192	2
TAP	74	192	3
TAP	74	288	6
TAP	74	288	7
TAP	74	336	0
TAP	74	336	5
TAP	75	0	1
TAP	75	48	2
TAP	75	96	3
TAP	75	144	6
TAP	75	192	5
TAP	75	240	4
TAP	75	288	1
TAP	75	336	0
TAP	76	0	7
TAP	76	48	1
TAP	76	48	6
STR	76	96	2
SCL	76	96	2	96	432	5
TAP	76	96	5
TAP	76	144	3
TAP	76	144	4
HLD	78	0	1	192
STR	78	0	6
SI_	78	0	6	96	96	2
STR	78	288	1
SCR	78	288	1	96	96	4
STR	79	0	4
SCR	79	0	4	96	96	7
STR	79	96	7
SCR	79	96	7	96	96	2
TAP	79	192	2
STR	80	0	3
SCL	80	0	3	96	144	0
STR	80	0	7
SUR	80	0	7	96	144	4
STR	81	0	1
SI_	81	0	1	96	96	5
HLD	81	0	6	192
STR	81	288	6
SCL	81	288	6	96	96	3
STR	82	0	3
SCL	82	0	3	96	96	0
STR	82	96	0
SCL	82	96	0	96	96	5
TAP	82	192	5
STR	83	0	0
SUL	83	0	0	96	144	3
STR	83	0	4
SCR	83	0	4	96	144	7
STR	84	0	1
SCR	84	0	1	96	48	4
TAP	84	192	6
TAP	84	192	7
STR	84	288	1
SI_	84	288	1	96	48	5
STR	84	288	2
SI_	84	288	2	96	48	7
STR	85	192	6
SCL	85	192	6	96	48	3
TAP	86	0	0
TAP	86	0	1
STR	86	96	5
SI_	86	96	5	96	48	0
STR	86	96	6
SI_	86	96	6	96	48	2
STR	87	0	3
SCL	87	0	3	96	96	0
STR	87	288	4
SCR	87	288	4	96	96	7
STR	88	192	2
SCR	88	192	2	96	96	5
STR	88	192	6
SUL	88	192	6	96	96	1
STR	89	96	0
SI_	89	96	0	96	48	4
STR	89	96	7
SI_	89	96	7	96	48	3
TAP	89	192	0
TAP	89	192	7
BRK	89	288	1
BRK	89	288	6
TAP	90	0	0
TAP	90	48	1
TAP	90	96	2
TAP	90	144	3
TAP	90	192	4
STR	90	192	5
SI_	90	192	5	96	48	7
STR	90	288	3
SI_	90	288	3	96	48	1
STR	91	0	4
SI_	91	0	4	96	48	0
TAP	91	96	2
TAP	91	192	7
TAP	91	240	6
TAP	91	288	5
TAP	91	336	4
STR	92	0	2
SI_	92	0	2	96	48	0
TAP	92	0	3
STR	92	96	4
SI_	92	96	4	96	48	6
STR	92	192	3
SI_	92	192	3	96	48	7
TAP	92	288	5
TAP	93	0	0
TAP	93	48	0
TAP	93	96	1
TAP	93	96	7
TAP	93	144	2
TAP	93	144	6
TAP	93	192	3
TAP	93	192	5
TAP	93	288	7
TAP	93	336	7
TAP	94	0	0
TAP	94	0	6
TAP	94	48	1
TAP	94	48	5
TAP	94	96	2
TAP	94	96	4
TAP	94	192	3
TAP	94	192	7
TAP	94	288	0
TAP	94	288	4
TAP	94	336	1
TAP	94	336	5
TAP	95	0	2
TAP	95	0	6
TAP	95	48	3
TAP	95	48	7
STR	95	96	0
SI_	95	96	0	96	48	5
STR	95	96	4
SI_	95	96	4	96	48	1
TAP	95	288	2
TAP	95	288	6
TAP	96	0	5
TAP	96	48	4
TAP	96	96	3
TAP	96	144	2
STR	96	192	0
SCL	96	192	0	96	48	5
TAP	96	192	1
STR	96	288	0
SCR	96	288	0	96	48	3
STR	97	0	0
SI_	97	0	0	96	48	4
TAP	97	96	0
TAP	97	192	2
TAP	97	240	3
TAP	97	288	4
TAP	97	336	5
TAP	98	0	6
STR	98	0	7
SCR	98	0	7	96	48	2
STR	98	96	7
SCL	98	96	7	96	48	4
STR	98	192	7
SI_	98	192	7	96	48	3
TAP	98	288	7
TAP	99	0	0
TAP	99	0	1
TAP	99	48	0
TAP	99	48	1
TAP	99	96	6
TAP	99	96	7
TAP	99	144	6
TAP	99	144	7
TAP	99	192	1
TAP	99	192	5
TAP	99	240	1
TAP	99	240	5
TAP	99	288	2
TAP	99	288	3
TAP	99	336	2
TAP	99	336	3
TAP	100	0	4
TAP	100	0	5
TAP	100	48	4
TAP	100	48	5
TAP	100	96	2
TAP	100	96	6
TAP	100	144	2
TAP	100	144	6
STR	100	192	1
SI_	100	192	1	96	48	5
STR	100	288	0
SI_	100	288	0	96	48	4
STR	101	0	7
SI_	101	0	7	96	48	3
STR	101	96	6
SI_	101	96	6	96	48	2
STR	101	192	5
SI_	101	192	5	96	48	1
STR	101	288	7
SF_	101	288	7	96	48	3
BRK	102	0	7
TAP	102	144	2
TAP	102	144	5
STR	102	192	0
SF_	102	192	0	96	48	4
TAP	102	192	7
BRK	102	288	0
TAP	103	48	3
TAP	103	48	4
TAP	103	96	1
TAP	103	96	6
TAP	103	192	0
TAP	103	216	7
TAP	103	240	0
TAP	103	264	7
TAP	103	288	0
TAP	103	312	7
TAP	103	336	0
TAP	103	360	7
TAP	104	0	0
TAP	104	24	7
TAP	104	48	0
TAP	104	72	7
BST	104	96	1
SI_	104	96	1	96	48	4
BST	104	96	6
SI_	104	96	6	96	48	3
BRK	104	192	1
BRK	104	192	6
BST	104	288	0
SCR	104	288	0	96	48	3
BST	104	288	7
SCL	104	288	7	96	48	4

T_REC_TAP	390
T_REC_BRK	8
T_REC_XTP	0
T_REC_HLD	27
T_REC_XHO	0
T_REC_STR	106
T_REC_BST	5
T_REC_XST	0
T_REC_TTP	0
T_REC_THO	0
T_REC_SLD	111
T_REC_ALL	647
T_NUM_TAP	496
T_NUM_BRK	13
T_NUM_HLD	27
T_NUM_SLD	111
T_NUM_ALL	647
T_JUDGE_TAP	509
T_JUDGE_HLD	102
T_JUDGE_SLD	111
T_JUDGE_ALL	722
TTM_EACHPAIRS	138
TTM_SCR_TAP	248000
TTM_SCR_BRK	33800
TTM_SCR_HLD	27000
TTM_SCR_SLD	166500
TTM_SCR_ALL	475300
TTM_SCR_S	459800
TTM_SCR_SS	474000
TTM_RAT_ACV	10027

