VERSION	0.00.00	1.03.00
FES_MODE	0
BPM_DEF	200.000	200.000	200.000	200.000
MET_DEF	4	4
RESOLUTION	384
CLK_DEF	384
COMPATIBLE_CODE	MA2

BPM	0	0	200.000
MET	0	0	4	3

HLD	3	0	5	144
STR	3	144	4
SUL	3	144	4	96	336	3
TAP	4	336	4
TAP	4	336	5
TAP	5	96	2
TAP	5	240	2
TAP	5	240	3
HLD	6	0	6	144
TAP	6	144	7
HLD	6	288	1	144
STR	7	48	0
SUL	7	48	0	96	336	7
TAP	8	240	1
TAP	8	240	6
HLD	9	0	2	144
TAP	9	144	3
HLD	9	288	5	144
STR	10	48	4
SUL	10	48	4	96	336	3
TAP	11	240	4
TAP	11	240	5
HLD	12	0	1	144
TAP	12	144	3
HLD	12	288	6	144
TAP	13	48	4
STR	13	192	1
SLR	13	192	1	96	288	7
TAP	15	0	6
TAP	15	96	7
TAP	15	192	0
TAP	15	192	5
TAP	15	288	1
TAP	16	0	0
TAP	16	96	2
TAP	16	96	7
TAP	16	192	7
TAP	16	288	0
TAP	17	0	1
TAP	17	0	6
TAP	17	96	3
TAP	17	96	4
TAP	17	192	2
TAP	17	192	5
TAP	18	0	2
TAP	18	96	3
TAP	18	192	1
TAP	18	192	4
TAP	18	288	5
TAP	19	0	4
TAP	19	96	3
TAP	19	96	6
TAP	19	192	3
TAP	19	288	4
TAP	20	0	2
TAP	20	0	5
TAP	20	96	4
TAP	20	96	6
TAP	20	192	1
TAP	20	192	3
TAP	20	288	0
TAP	20	288	7
TAP	21	0	1
TAP	21	96	0
TAP	21	192	2
TAP	21	192	7
TAP	21	288	6
TAP	22	0	7
TAP	22	96	0
TAP	22	96	5
TAP	22	192	0
TAP	22	288	7
TAP	23	0	1
TAP	23	0	6
TAP	23	96	3
TAP	23	96	4
TAP	23	192	1
TAP	23	192	6
TAP	24	0	5
TAP	24	0	7
TAP	24	96	4
TAP	24	192	3
TAP	24	288	0
TAP	24	288	2
TAP	25	0	3
TAP	25	96	4
TAP	25	192	2
TAP	25	192	5
TAP	25	288	1
TAP	25	288	6
TAP	26	0	0
TAP	26	0	7
TAP	26	96	5
TAP	26	96	7
TAP	26	192	0
TAP	26	192	2
BRK	26	288	0
BRK	26	288	7
HLD	27	0	0	288
HLD	27	288	1	288
HLD	28	192	2	288
HLD	29	96	3	288
STR	30	0	4
SUL	30	0	4	96	336	3
TAP	31	192	2
TAP	31	192	3
TAP	32	96	1
BRK	33	0	0
BRK	33	0	7
HLD	33	288	6	288
HLD	34	192	5	288
TAP	35	96	4
TAP	36	0	3
TAP	36	0	4
HLD	36	288	1	288
HLD	37	192	2	288
TAP	38	96	3
HLD	39	0	5	96
TAP	39	96	4
TAP	39	192	3
TAP	39	192	6
HLD	39	288	3	96
TAP	39	288	6
TAP	40	0	4
TAP	40	96	1
TAP	40	96	6
TAP	40	192	0
TAP	40	192	7
TAP	40	288	0
TAP	40	288	1
TAP	41	0	1
TAP	41	0	2
HLD	41	96	2	96
HLD	41	96	3	96
TAP	41	288	1
TAP	41	288	4
TAP	42	0	4
TAP	42	48	4
TAP	42	96	3
TAP	42	144	3
TAP	42	192	5
TAP	42	288	4
TAP	42	288	5
TAP	43	0	5
TAP	43	0	6
TAP	43	96	6
TAP	43	96	7
TAP	43	192	0
TAP	43	192	7
HLD	43	288	1	96
TAP	44	0	2
HLD	44	96	2	96
TAP	44	192	3
TAP	44	288	3
TAP	44	288	4
HLD	45	0	2	96
TAP	45	96	3
TAP	45	192	1
TAP	45	192	4
HLD	45	288	1	96
TAP	45	288	4
TAP	46	0	0
TAP	46	96	2
TAP	46	96	7
TAP	46	192	0
TAP	46	192	7
TAP	46	288	6
TAP	46	288	7
TAP	47	0	5
TAP	47	0	6
TAP	47	96	0
TAP	47	96	7
TAP	47	192	0
TAP	47	192	1
TAP	47	288	1
TAP	47	288	2
TAP	48	0	1
TAP	48	0	7
TAP	48	96	0
TAP	48	96	6
TAP	48	192	5
TAP	48	192	7
TAP	48	288	0
TAP	48	288	6
TAP	49	0	1
TAP	49	0	7
TAP	49	96	0
TAP	49	96	2
TAP	49	192	3
TAP	49	192	7
TAP	49	288	2
TAP	49	288	6
STR	50	0	1
SCR	50	0	1	96	144	4
STR	50	0	5
SCR	50	0	5	96	144	0
BRK	51	0	0
BRK	51	0	7
HLD	51	288	6	288
HLD	52	192	5	288
HLD	53	96	4	288
HLD	54	0	3	288
HLD	54	288	2	288
HLD	55	192	1	576
BRK	57	0	0
TAP	58	192	1
TAP	59	96	2
HLD	60	0	3	288
TAP	60	288	4
TAP	61	192	5
TAP	61	192	6
TAP	62	96	3
TAP	62	96	4
STR	63	0	1
SCL	63	0	1	96	288	2
TAP	63	0	2
TAP	64	96	1
TAP	64	96	6
HLD	64	192	1	96
TAP	64	288	0
TAP	65	0	2
TAP	65	0	3
TAP	65	96	0
TAP	65	96	1
TAP	65	192	7
TAP	65	240	7
TAP	65	288	0
HLD	66	0	6	96
TAP	66	96	7
TAP	66	192	4
TAP	66	192	5
STR	66	288	6
SI_	66	288	6	96	96	3
STR	66	288	7
SI_	66	288	7	96	96	3
HLD	67	192	1	96
TAP	67	288	0
TAP	68	0	3
TAP	68	0	4
HLD	68	96	6	96
TAP	68	192	7
TAP	68	288	3
TAP	68	288	4
TAP	69	0	3
TAP	69	0	4
TAP	69	96	2
TAP	69	96	5
STR	69	192	1
SLR	69	192	1	96	192	7
TAP	69	192	6
TAP	70	192	6
TAP	70	192	7
TAP	70	288	5
TAP	70	336	5
TAP	71	0	3
TAP	71	96	0
TAP	71	96	1
TAP	71	192	2
TAP	71	240	2
TAP	71	288	4
TAP	72	0	5
TAP	72	0	7
TAP	72	96	4
TAP	72	144	4
TAP	72	192	2
STR	72	288	0
SI_	72	288	0	96	96	5
STR	72	288	1
SI_	72	288	1	96	96	4
TAP	73	192	5
STR	73	288	6
SI_	73	288	6	96	96	3
TAP	74	96	2
STR	74	192	1
SI_	74	192	1	96	96	4
TAP	75	0	5
TAP	75	96	0
TAP	75	192	6
TAP	75	192	7
TAP	75	288	0
TAP	75	288	1
TAP	76	0	2
TAP	76	96	7
TAP	76	192	3
TAP	76	240	3
TAP	76	288	4
TAP	76	336	4
TAP	77	0	2
TAP	77	48	2
TAP	77	96	5
TAP	77	144	5
TAP	77	192	1
TAP	77	240	1
STR	77	288	6
SI_	77	288	6	96	96	2
HLD	78	288	1	288
STR	79	192	0
SLR	79	192	0	96	288	4
HLD	81	0	5	288
HLD	81	288	6	288
STR	82	192	7
SLL	82	192	7	96	288	3
STR	84	0	0
SCL	84	0	0	96	288	5
SCR	84	0	0	96	288	3
STR	85	192	7
SCL	85	192	7	96	288	4
SCR	85	192	7	96	288	2
HLD	87	0	3	480
HLD	87	288	4	192
TAP	88	192	3
TAP	88	240	4
TAP	88	288	3
TAP	88	336	4
TAP	89	0	3
TAP	89	48	4
TAP	89	96	3
TAP	89	192	0
TAP	89	192	7
BRK	89	288	1
BRK	89	288	6
TAP	90	0	4
HLD	90	0	5	96
TAP	90	96	3
TAP	90	192	0
TAP	90	192	2
TAP	90	288	6
TAP	90	288	7
TAP	91	0	5
TAP	91	48	4
TAP	91	96	5
HLD	91	192	2	96
TAP	91	192	3
TAP	91	288	4
TAP	92	0	5
TAP	92	0	7
TAP	92	96	0
TAP	92	96	1
TAP	92	192	2
TAP	92	240	3
TAP	92	288	2
TAP	93	0	4
HLD	93	0	5	96
TAP	93	96	6
TAP	93	192	6
TAP	93	192	7
HLD	93	288	2	96
TAP	93	288	3
TAP	94	0	1
TAP	94	96	0
TAP	94	96	1
STR	94	192	2
SI_	94	192	2	96	96	7
STR	94	192	7
SI_	94	192	7	96	96	4
STR	95	96	0
SI_	95	96	0	96	96	3
STR	95	96	5
SI_	95	96	5	96	96	0
TAP	96	0	0
HLD	96	0	1	96
TAP	96	96	7
TAP	96	192	4
TAP	96	192	6
TAP	96	288	2
TAP	96	288	3
TAP	97	0	1
TAP	97	48	0
TAP	97	96	1
HLD	97	192	6	96
TAP	97	192	7
TAP	97	288	0
TAP	98	0	1
TAP	98	0	3
TAP	98	96	4
TAP	98	96	5
TAP	98	192	6
TAP	98	240	7
STR	98	288	6
SI_	98	288	6	96	96	3
TAP	99	96	1
TAP	99	144	1
STR	99	192	1
SI_	99	192	1	96	96	4
TAP	100	0	7
TAP	100	48	7
STR	100	96	7
SI_	100	96	7	96	96	2
SI_	100	96	7	96	96	4
TAP	101	96	0
TAP	101	96	1
TAP	101	192	3
TAP	101	192	4
TAP	101	288	6
TAP	101	288	7
TAP	102	0	0
TAP	102	48	7
TAP	102	96	6
TAP	102	144	5
TAP	102	192	4
TAP	102	240	3
TAP	102	288	2
TAP	102	336	1
TAP	103	0	0
TAP	103	48	7
TAP	103	96	6
TAP	103	144	5
TAP	103	192	3
TAP	103	192	4
TAP	103	240	3
TAP	103	240	4
TAP	103	288	2
TAP	103	288	5
TAP	103	336	2
TAP	103	336	5
TAP	104	0	1
TAP	104	0	6
TAP	104	48	1
TAP	104	48	6
BRK	104	96	0
BRK	104	96	7
BRK	104	192	2
BRK	104	192	5
BST	104	288	0
SI_	104	288	0	96	48	4
BRK	104	288	7

T_REC_TAP	308
T_REC_BRK	14
T_REC_XTP	0
T_REC_HLD	45
T_REC_XHO	0
T_REC_STR	27
T_REC_BST	1
T_REC_XST	0
T_REC_TTP	0
T_REC_THO	0
T_REC_SLD	31
T_REC_ALL	426
T_NUM_TAP	335
T_NUM_BRK	15
T_NUM_HLD	45
T_NUM_SLD	31
T_NUM_ALL	426
T_JUDGE_TAP	350
T_JUDGE_HLD	185
T_JUDGE_SLD	31
T_JUDGE_ALL	566
TTM_EACHPAIRS	114
TTM_SCR_TAP	167500
TTM_SCR_BRK	39000
TTM_SCR_HLD	45000
TTM_SCR_SLD	46500
TTM_SCR_ALL	298000
TTM_SCR_S	287650
TTM_SCR_SS	296500
TTM_RAT_ACV	10050

