VERSION	0.00.00	1.03.00
FES_MODE	0
BPM_DEF	200.000	200.000	200.000	200.000
MET_DEF	4	4
RESOLUTION	384
CLK_DEF	384
COMPATIBLE_CODE	MA2

BPM	0	0	200.000
MET	0	0	4	3

TAP	3	0	3
TAP	3	288	2
TAP	3	288	4
TAP	4	192	3
TAP	4	336	3
TAP	5	96	2
TAP	5	96	4
TAP	6	0	4
TAP	6	288	3
TAP	6	288	5
TAP	7	192	4
TAP	7	336	4
TAP	8	96	3
TAP	8	96	5
TAP	9	0	7
TAP	9	288	0
TAP	9	288	6
TAP	10	192	7
TAP	10	336	7
TAP	11	96	0
TAP	11	96	6
TAP	12	0	0
TAP	12	288	1
TAP	12	288	7
TAP	13	192	0
TAP	14	96	0
TAP	14	96	7
TAP	15	0	1
TAP	15	96	1
TAP	15	288	2
TAP	16	0	2
TAP	16	192	3
TAP	16	288	3
TAP	17	96	4
TAP	17	192	4
TAP	18	0	5
TAP	18	96	5
TAP	18	288	6
TAP	19	0	6
TAP	19	192	7
TAP	19	288	7
TAP	20	96	0
TAP	20	96	7
TAP	21	0	6
TAP	21	96	6
TAP	21	288	5
TAP	22	0	5
TAP	22	192	4
TAP	22	288	4
TAP	23	96	3
TAP	23	192	3
TAP	24	0	2
TAP	24	96	2
TAP	24	288	1
TAP	25	0	1
TAP	25	192	0
TAP	25	288	0
TAP	26	96	0
TAP	26	96	7
STR	27	0	7
SI_	27	0	7	96	480	4
STR	30	0	0
SI_	30	0	0	96	480	3
STR	33	0	7
SI_	33	0	7	96	480	2
STR	36	0	0
SI_	36	0	0	96	480	5
TAP	39	0	7
TAP	39	96	7
TAP	39	288	0
TAP	39	288	7
TAP	40	0	0
TAP	40	0	7
TAP	40	192	1
TAP	40	288	1
TAP	41	96	0
TAP	41	96	1
TAP	41	192	0
TAP	41	192	1
TAP	42	0	2
TAP	42	96	2
TAP	42	288	2
TAP	42	288	3
TAP	43	0	2
TAP	43	0	3
HLD	43	192	3	288
HLD	43	192	4	288
TAP	45	0	5
TAP	45	96	5
TAP	45	288	4
TAP	45	288	5
TAP	46	0	4
TAP	46	0	5
TAP	46	192	6
TAP	46	288	6
TAP	47	96	6
TAP	47	96	7
TAP	47	192	6
TAP	47	192	7
TAP	48	0	0
TAP	48	96	0
TAP	48	288	0
TAP	48	288	7
TAP	49	0	0
TAP	49	0	7
HLD	49	192	0	288
HLD	49	192	7	288
TAP	51	0	6
TAP	52	192	4
TAP	54	0	2
TAP	55	192	1
BRK	57	0	0
TAP	61	192	3
TAP	62	96	3
TAP	62	96	4
TAP	63	0	3
TAP	63	0	4
TAP	63	288	2
TAP	63	288	5
TAP	64	192	6
TAP	64	288	6
TAP	65	0	6
TAP	65	96	7
TAP	66	0	7
TAP	66	96	7
TAP	66	192	7
TAP	66	288	0
TAP	67	192	0
TAP	67	288	0
TAP	68	0	0
TAP	68	96	1
TAP	69	0	1
TAP	69	96	1
TAP	69	192	1
TAP	69	288	2
TAP	70	192	2
TAP	70	288	2
TAP	71	0	2
TAP	71	96	3
TAP	72	0	3
TAP	72	96	3
TAP	72	192	3
TAP	72	288	4
TAP	73	192	4
TAP	73	288	4
TAP	74	0	4
TAP	74	96	5
TAP	75	0	5
TAP	75	96	5
TAP	75	192	5
TAP	75	288	6
TAP	76	192	0
TAP	76	192	7
TAP	77	0	0
TAP	77	0	7
TAP	77	96	0
TAP	77	96	7
HLD	78	0	0	288
TAP	78	288	7
HLD	79	192	7	288
TAP	80	96	0
HLD	81	0	1	288
TAP	81	288	0
HLD	82	192	6	288
TAP	83	96	7
HLD	84	0	1	288
TAP	84	288	0
HLD	85	192	6	288
TAP	86	96	7
TAP	87	0	0
TAP	87	0	1
TAP	87	288	6
TAP	87	288	7
HLD	88	192	7	288
BRK	89	96	0
TAP	90	0	0
TAP	90	96	0
TAP	90	192	0
TAP	90	288	1
TAP	91	0	1
TAP	91	96	1
TAP	91	192	2
TAP	91	288	2
TAP	92	0	2
TAP	92	96	2
TAP	92	96	3
TAP	93	0	4
TAP	93	96	4
TAP	93	192	4
TAP	93	288	5
TAP	94	0	5
TAP	94	96	5
TAP	94	192	6
TAP	94	288	6
TAP	95	0	6
TAP	95	96	6
TAP	95	96	7
TAP	96	0	7
TAP	96	96	7
TAP	96	192	7
TAP	96	288	6
TAP	97	0	6
TAP	97	96	6
TAP	97	192	5
TAP	97	288	5
TAP	98	0	5
TAP	98	96	4
TAP	98	96	5
TAP	99	0	3
TAP	99	96	3
TAP	99	192	3
TAP	99	288	2
TAP	100	0	2
TAP	100	96	2
TAP	100	192	1
TAP	100	288	1
TAP	101	0	1
TAP	101	96	0
TAP	101	96	1
TAP	102	0	0
TAP	102	0	7
TAP	102	288	1
TAP	102	288	6
TAP	103	192	0
TAP	103	192	7
TAP	103	288	0
TAP	103	288	7
TAP	104	0	0
TAP	104	0	7
TAP	104	96	0
TAP	104	96	7
TAP	104	192	0
TAP	104	192	7
TAP	104	288	0
TAP	104	288	7
BRK	105	0	1
BRK	105	0	6

T_REC_TAP	214
T_REC_BRK	4
T_REC_XTP	0
T_REC_HLD	11
T_REC_XHO	0
T_REC_STR	4
T_REC_BST	0
T_REC_XST	0
T_REC_TTP	0
T_REC_THO	0
T_REC_SLD	4
T_REC_ALL	237
T_NUM_TAP	218
T_NUM_BRK	4
T_NUM_HLD	11
T_NUM_SLD	4
T_NUM_ALL	237
T_JUDGE_TAP	222
T_JUDGE_HLD	66
T_JUDGE_SLD	4
T_JUDGE_ALL	292
TTM_EACHPAIRS	45
TTM_SCR_TAP	109000
TTM_SCR_BRK	10400
TTM_SCR_HLD	11000
TTM_SCR_SLD	6000
TTM_SCR_ALL	136400
TTM_SCR_S	131950
TTM_SCR_SS	136000
TTM_RAT_ACV	10029

