VERSION	0.00.00	1.03.00
FES_MODE	0
BPM_DEF	185.000	185.000	185.000	185.000
MET_DEF	4	4
RESOLUTION	384
CLK_DEF	384
COMPATIBLE_CODE	MA2

BPM	0	0	185.000
MET	0	0	4	4

BST	2	336	0
SXL	2	336	0	96	432	7
BST	2	336	4
SXL	2	336	4	96	432	3
BRK	4	144	3
BRK	4	144	7
BRK	4	240	0
BRK	4	240	4
BST	4	336	1
SSR	4	336	1	96	336	5
BST	4	336	5
SSR	4	336	5	96	336	1
BST	6	336	7
SXR	6	336	7	96	240	0
BST	7	336	3
SXR	7	336	3	96	240	4
BST	8	336	3
SXR	8	336	3	96	288	0
BST	8	336	7
SXR	8	336	7	96	288	4
TAP	10	0	0
TAP	10	0	4
TAP	10	96	0
TAP	10	96	4
TAP	10	192	0
TAP	10	192	4
TAP	10	240	0
TAP	10	240	4
TAP	10	288	0
TAP	10	288	4
TAP	10	336	0
TAP	10	336	4
TAP	11	0	0
TAP	11	24	4
TAP	11	48	0
TAP	11	72	4
TAP	11	96	0
TAP	11	120	4
TAP	11	144	0
TAP	11	168	4
TAP	11	192	0
TAP	11	204	1
TAP	11	216	2
TAP	11	228	3
TAP	11	240	4
TAP	11	252	5
TAP	11	264	6
TAP	11	276	7
TAP	11	288	0
TAP	11	300	1
TAP	11	312	2
TAP	11	324	3
BST	11	336	4
SI_	11	336	4	96	48	0
TAP	12	48	4
TAP	12	96	7
TAP	12	192	1
STR	12	240	2
SCR	12	240	2	96	48	5
TAP	12	288	0
TAP	12	336	2
STR	13	48	6
SUL	13	48	6	96	48	2
TAP	13	96	7
TAP	13	144	6
STR	13	240	1
SCL	13	240	1	96	48	6
TAP	13	288	2
TAP	13	336	1
HLD	14	48	5	144
TAP	14	96	4
TAP	14	144	3
HLD	14	192	1	144
TAP	14	240	2
TAP	14	288	3
HLD	14	336	5	96
STR	15	48	3
SUL	15	48	3	96	96	7
TAP	15	96	5
STR	15	144	7
SUL	15	144	7	96	96	3
STR	15	240	3
SCL	15	240	3	96	192	4
HLD	15	336	7	240
TAP	16	192	3
TAP	16	240	2
TAP	16	240	6
TAP	16	288	1
TAP	16	288	5
HLD	16	336	0	96
TAP	16	336	4
TAP	17	48	4
TAP	17	96	1
TAP	17	96	5
TAP	17	144	3
HLD	17	144	7	96
TAP	17	240	3
TAP	17	288	2
TAP	17	288	6
STR	17	336	0
SI_	17	336	0	96	48	4
TAP	17	336	4
TAP	18	48	0
STR	18	96	6
SI_	18	96	6	96	48	2
TAP	18	192	6
TAP	18	240	1
TAP	18	336	6
TAP	18	336	7
TAP	19	0	1
TAP	19	24	4
TAP	19	48	2
TAP	19	72	5
TAP	19	96	3
TAP	19	120	6
TAP	19	144	4
TAP	19	168	7
TAP	19	192	3
TAP	19	216	6
TAP	19	240	2
TAP	19	264	5
TAP	19	288	1
TAP	19	312	4
BST	19	336	0
SI_	19	336	0	96	48	4
TAP	20	48	0
TAP	20	96	7
TAP	20	192	6
STR	20	240	5
SCL	20	240	5	96	48	2
TAP	20	288	7
TAP	20	336	5
STR	21	48	1
SUR	21	48	1	96	48	5
TAP	21	96	0
TAP	21	144	1
STR	21	240	6
SCR	21	240	6	96	48	1
TAP	21	288	5
TAP	21	336	6
HLD	22	48	2	144
TAP	22	96	3
TAP	22	144	4
HLD	22	192	6	144
TAP	22	240	5
TAP	22	288	4
HLD	22	336	2	96
STR	23	48	4
SCR	23	48	4	96	96	0
TAP	23	96	2
STR	23	144	0
SCR	23	144	0	96	96	4
STR	23	240	4
SF_	23	240	4	96	72	0
TAP	24	96	2
TAP	24	96	6
TAP	24	192	1
STR	24	240	2
SCL	24	240	2	96	48	7
TAP	24	288	3
TAP	24	336	4
STR	25	48	6
SCL	25	48	6	96	48	3
TAP	25	96	7
TAP	25	144	0
TAP	25	240	2
TAP	25	288	3
TAP	25	336	4
STR	26	0	1
SI_	26	0	1	96	48	4
TAP	26	0	5
TAP	26	96	1
STR	26	96	5
SI_	26	96	5	96	48	2
STR	26	192	0
SI_	26	192	0	96	48	3
TAP	26	192	5
TAP	26	288	0
STR	26	288	6
SI_	26	288	6	96	48	3
STR	27	0	1
SI_	27	0	1	96	48	6
TAP	27	0	6
TAP	27	96	1
STR	27	96	5
SI_	27	96	5	96	48	0
TAP	27	192	5
TAP	27	240	1
TAP	27	288	7
TAP	27	336	3
STR	28	0	6
SI_	28	0	6	96	48	3
STR	28	96	2
SI_	28	96	2	96	48	5
TAP	28	96	6
TAP	28	192	2
STR	28	192	7
SI_	28	192	7	96	48	4
STR	28	288	1
SI_	28	288	1	96	48	4
TAP	28	288	7
TAP	29	0	1
STR	29	0	6
SI_	29	0	6	96	48	1
STR	29	96	2
SCR	29	96	2	96	48	5
TAP	29	96	6
TAP	29	192	2
TAP	29	192	5
TAP	29	288	0
TAP	29	312	7
TAP	29	336	0
TAP	29	360	7
TAP	30	0	1
TAP	30	0	6
STR	30	48	1
SI_	30	48	1	96	48	4
STR	30	48	6
SI_	30	48	6	96	48	3
TAP	30	144	1
TAP	30	144	6
TAP	30	240	2
TAP	30	240	5
TAP	30	288	2
TAP	30	288	5
HLD	31	0	3	144
TAP	31	0	4
HLD	31	144	2	144
TAP	31	288	1
TAP	32	0	0
TAP	32	0	3
STR	32	48	0
SI_	32	48	0	96	48	4
STR	32	48	3
SI_	32	48	3	96	48	7
TAP	32	144	0
TAP	32	144	3
TAP	32	240	2
TAP	32	240	6
TAP	32	288	2
TAP	32	288	6
TAP	33	0	3
HLD	33	0	4	144
HLD	33	144	5	144
TAP	33	288	6
TAP	34	0	4
TAP	34	0	7
STR	34	48	4
SI_	34	48	4	96	48	0
STR	34	48	7
SI_	34	48	7	96	48	3
TAP	34	144	4
TAP	34	144	7
TAP	34	240	1
TAP	34	240	5
TAP	34	288	1
TAP	34	288	5
TAP	35	0	3
TAP	35	0	4
TAP	35	96	2
TAP	35	96	5
TAP	35	144	2
TAP	35	144	5
TAP	35	240	1
TAP	35	240	6
TAP	35	288	7
TAP	35	336	0
TAP	36	0	1
TAP	36	0	6
STR	36	48	1
SI_	36	48	1	96	48	5
STR	36	48	6
SI_	36	48	6	96	48	2
TAP	36	144	1
TAP	36	144	6
TAP	36	240	3
TAP	36	240	4
HLD	36	288	3	384
HLD	36	288	4	384
TAP	38	0	0
TAP	38	0	5
HLD	38	48	0	96
TAP	38	48	5
HLD	38	144	6	96
TAP	38	240	5
TAP	38	288	0
TAP	38	288	7
TAP	39	0	1
TAP	39	0	4
TAP	39	48	1
HLD	39	48	4	96
HLD	39	144	2	96
TAP	39	240	1
TAP	39	288	3
TAP	39	288	4
TAP	40	0	6
TAP	40	0	7
HLD	40	48	3	96
TAP	40	48	5
HLD	40	144	6	96
TAP	40	240	7
TAP	40	288	2
TAP	40	288	4
TAP	41	0	2
TAP	41	0	3
TAP	41	48	1
HLD	41	48	7	96
HLD	41	144	2	96
TAP	41	240	3
TAP	41	288	0
TAP	41	288	6
TAP	42	0	2
TAP	42	0	5
STR	42	48	2
SI_	42	48	2	96	48	7
STR	42	48	5
SI_	42	48	5	96	48	0
TAP	42	144	2
TAP	42	144	5
TAP	42	240	1
TAP	42	240	6
TAP	42	288	1
TAP	42	288	6
STR	43	0	0
SCR	43	0	0	96	96	3
STR	43	96	3
SCR	43	96	3	96	96	6
STR	43	192	6
SCR	43	192	6	96	96	1
STR	43	288	1
SCR	43	288	1	96	288	7
HLD	44	0	4	384
BRK	45	0	0
BRK	45	192	7
HLD	46	0	1	720
BRK	46	0	6
TAP	46	288	0
TAP	46	336	7
TAP	47	0	6
TAP	47	96	4
TAP	47	144	4
STR	47	240	2
SCL	47	240	2	96	432	4
TAP	48	288	7
BRK	49	0	7
BRK	49	192	0
BRK	50	0	1
HLD	50	0	6	720
TAP	50	288	7
TAP	50	336	0
TAP	51	0	1
TAP	51	48	2
TAP	51	144	4
STR	51	240	5
SCR	51	240	5	96	432	3
TAP	52	288	0
TAP	52	336	7
TAP	53	0	6
TAP	53	48	5
STR	53	144	3
SI_	53	144	3	96	48	7
STR	53	144	4
SI_	53	144	4	96	48	0
TAP	53	240	3
TAP	53	240	4
BRK	53	336	1
BRK	53	336	6
TAP	54	96	3
TAP	54	96	4
TAP	54	192	5
TAP	54	240	6
STR	54	288	7
SI_	54	288	7	96	48	3
TAP	54	336	0
HLD	55	0	1	144
TAP	55	96	2
STR	55	144	2
SI_	55	144	2	96	48	7
STR	55	240	1
SI_	55	240	1	96	48	4
HLD	55	336	5	144
TAP	56	96	7
TAP	56	192	2
TAP	56	240	1
STR	56	288	0
SI_	56	288	0	96	48	4
TAP	56	336	7
HLD	57	0	6	144
TAP	57	96	5
STR	57	144	5
SI_	57	144	5	96	48	0
STR	57	240	6
SI_	57	240	6	96	48	3
HLD	57	336	2	144
TAP	58	96	0
HLD	58	192	3	96
HLD	58	192	4	96
STR	58	336	1
SI_	58	336	1	96	48	5
TAP	58	336	6
TAP	59	48	1
STR	59	48	6
SI_	59	48	6	96	48	2
TAP	59	144	1
TAP	59	144	6
TAP	59	240	3
TAP	59	288	4
TAP	59	336	2
TAP	59	336	5
TAP	60	0	6
TAP	60	48	7
TAP	60	96	0
TAP	60	96	5
TAP	60	144	1
TAP	60	192	0
TAP	60	240	2
TAP	60	240	7
TAP	60	288	6
TAP	60	336	7
TAP	61	0	0
TAP	61	0	5
TAP	61	48	1
TAP	61	96	0
TAP	61	144	2
TAP	61	168	2
TAP	61	192	3
TAP	61	240	1
TAP	61	240	4
TAP	61	288	5
TAP	61	336	3
TAP	61	336	6
TAP	62	0	7
TAP	62	48	0
TAP	62	96	1
TAP	62	96	6
TAP	62	144	5
TAP	62	168	5
TAP	62	192	4
TAP	62	240	3
TAP	62	240	6
TAP	62	288	2
TAP	62	336	1
TAP	62	336	4
TAP	63	0	0
TAP	63	12	1
TAP	63	24	2
TAP	63	36	3
TAP	63	48	4
TAP	63	60	5
TAP	63	72	6
TAP	63	84	7
TAP	63	96	0
TAP	63	108	1
TAP	63	120	2
TAP	63	132	3
TAP	63	144	4
TAP	63	156	5
TAP	63	168	6
TAP	63	180	7
TAP	63	192	0
TAP	63	204	1
TAP	63	216	2
TAP	63	228	3
TAP	63	240	4
TAP	63	252	5
TAP	63	264	6
TAP	63	276	7
TAP	63	288	0
TAP	63	300	1
TAP	63	312	2
TAP	63	324	3
BST	63	336	4
SI_	63	336	4	96	48	0
TAP	64	48	4
TAP	64	96	7
TAP	64	192	2
TAP	64	192	3
TAP	64	240	1
TAP	64	240	4
TAP	64	288	0
STR	64	288	5
SCR	64	288	5	96	48	0
TAP	65	0	2
TAP	65	48	3
TAP	65	96	4
STR	65	144	5
SI_	65	144	5	96	48	1
STR	65	144	6
SI_	65	144	6	96	48	2
TAP	65	240	5
TAP	65	240	6
TAP	65	336	3
TAP	65	336	4
TAP	66	0	3
TAP	66	0	4
TAP	66	48	6
TAP	66	72	7
TAP	66	96	6
TAP	66	144	0
TAP	66	144	5
TAP	66	192	2
TAP	66	192	3
TAP	66	240	1
TAP	66	264	0
TAP	66	288	1
TAP	66	336	2
TAP	66	336	7
TAP	67	0	4
TAP	67	0	5
TAP	67	48	7
TAP	67	72	0
TAP	67	96	1
STR	67	96	6
SCR	67	96	6	96	48	1
TAP	67	192	1
TAP	67	240	2
TAP	67	288	3
STR	67	336	4
SI_	67	336	4	96	48	0
TAP	67	336	5
TAP	68	48	4
STR	68	96	6
SI_	68	96	6	96	48	3
TAP	68	192	6
HLD	68	240	1	96
STR	68	336	2
SI_	68	336	2	96	48	6
TAP	69	48	2
STR	69	96	0
SI_	69	96	0	96	48	5
TAP	69	192	0
HLD	69	240	7	96
STR	69	336	6
SCL	69	336	6	96	96	1
TAP	70	48	7
TAP	70	96	7
TAP	70	192	0
TAP	70	192	7
TAP	70	240	1
TAP	70	240	6
TAP	70	288	0
TAP	70	288	7
TAP	70	336	2
TAP	70	336	5
TAP	71	0	0
TAP	71	0	7
TAP	71	48	1
TAP	71	72	1
TAP	71	96	2
TAP	71	96	7
TAP	71	144	6
TAP	71	168	6
TAP	71	192	0
TAP	71	192	5
TAP	71	240	3
TAP	71	264	3
TAP	71	288	2
TAP	71	288	5
STR	71	336	0
SI_	71	336	0	96	48	4
BRK	71	336	7
TAP	72	48	0
TAP	72	96	7
TAP	72	192	4
TAP	72	192	5
TAP	72	240	3
TAP	72	240	6
STR	72	288	2
SCL	72	288	2	96	48	7
TAP	72	288	7
TAP	73	0	5
TAP	73	48	4
TAP	73	96	3
STR	73	144	1
SI_	73	144	1	96	48	5
STR	73	144	2
SI_	73	144	2	96	48	6
TAP	73	240	1
TAP	73	240	2
TAP	73	336	3
TAP	73	336	4
TAP	74	0	3
TAP	74	0	4
TAP	74	48	1
TAP	74	72	0
TAP	74	96	1
TAP	74	144	2
TAP	74	144	7
TAP	74	192	4
TAP	74	192	5
TAP	74	240	6
TAP	74	264	7
TAP	74	288	6
STR	74	336	0
SLR	74	336	0	96	96	7
TAP	74	336	5
STR	75	0	3
SI_	75	0	3	96	48	6
TAP	75	192	0
TAP	75	192	5
TAP	75	240	1
TAP	75	240	6
TAP	75	288	2
TAP	75	288	7
STR	75	336	0
SI_	75	336	0	96	48	5
TAP	75	336	3
TAP	76	48	0
STR	76	96	4
SI_	76	96	4	96	48	1
TAP	76	192	4
TAP	76	240	6
BST	76	336	2
SI_	76	336	2	96	48	6
BST	76	336	5
SI_	76	336	5	96	48	3
BRK	77	48	2
BRK	77	48	5
BST	77	144	1
SI_	77	144	1	96	48	5
BST	77	144	6
SI_	77	144	6	96	48	0
BRK	77	240	1
BRK	77	240	6
BST	77	336	0
SCR	77	336	0	96	48	3
BST	77	336	7
SCL	77	336	7	96	48	4
BRK	78	48	0
BRK	78	48	7
STR	78	240	1
SI_	78	240	1	96	48	5
STR	78	288	6
SI_	78	288	6	96	48	2
TAP	78	336	1
TAP	79	0	6
TAP	79	96	3
TAP	79	96	4
STR	79	144	0
SCL	79	144	0	96	48	5
STR	79	144	7
SCR	79	144	7	96	48	2
TAP	79	240	0
TAP	79	240	7
TAP	79	336	0
TAP	79	336	7
TAP	79	360	0
TAP	79	360	7
STR	80	0	1
SI_	80	0	1	96	48	3
TAP	80	0	6
STR	80	96	1
SI_	80	96	1	96	48	7
TAP	80	144	5
STR	80	192	1
SI_	80	192	1	96	48	4
TAP	80	240	5
STR	80	288	1
SI_	80	288	1	96	48	6
TAP	80	336	5
STR	81	0	1
SCR	81	0	1	96	48	4
TAP	81	48	5
STR	81	96	1
SCL	81	96	1	96	48	6
TAP	81	144	5
STR	81	192	1
SI_	81	192	1	96	48	5
TAP	81	240	5
TAP	81	288	1
TAP	81	336	6
STR	82	0	7
SI_	82	0	7	96	48	5
TAP	82	48	3
STR	82	96	7
SI_	82	96	7	96	48	1
TAP	82	144	3
STR	82	192	7
SI_	82	192	7	96	48	4
TAP	82	240	3
STR	82	288	7
SI_	82	288	7	96	48	2
TAP	82	336	3
STR	83	0	7
SCL	83	0	7	96	48	4
TAP	83	48	3
STR	83	96	7
SCR	83	96	7	96	48	2
TAP	83	144	3
STR	83	192	7
SI_	83	192	7	96	48	3
TAP	83	240	3
STR	83	288	7
SCL	83	288	7	96	48	4
SCR	83	288	7	96	48	2
TAP	83	336	2
HLD	84	96	6	96
TAP	84	192	7
STR	84	240	0
SI_	84	240	0	96	48	4
STR	84	240	5
SI_	84	240	5	96	48	7
TAP	84	336	0
TAP	84	336	5
STR	85	48	2
SI_	85	48	2	96	48	0
STR	85	48	7
SI_	85	48	7	96	48	3
TAP	85	144	2
TAP	85	144	7
STR	85	240	0
SXL	85	240	0	96	192	3
STR	85	240	4
SXL	85	240	4	96	192	7
TAP	85	336	0
TAP	85	336	4
STR	86	240	3
SI_	86	240	3	96	48	0
STR	86	240	7
SI_	86	240	7	96	48	4
TAP	86	288	0
TAP	86	288	4
TAP	86	336	3
TAP	86	336	7
TAP	87	48	1
TAP	87	48	5
TAP	87	96	2
TAP	87	96	6
TAP	87	144	3
TAP	87	144	7
TAP	87	192	2
TAP	87	216	6
TAP	87	240	1
TAP	87	264	5
TAP	87	288	0
TAP	87	312	4
BST	87	336	7
SI_	87	336	7	96	48	3
TAP	88	48	7
TAP	88	96	0
TAP	88	192	1
STR	88	240	2
SCR	88	240	2	96	48	5
TAP	88	288	0
TAP	88	336	2
STR	89	48	6
SUL	89	48	6	96	48	2
TAP	89	96	7
TAP	89	144	6
STR	89	240	1
SCL	89	240	1	96	48	6
TAP	89	288	2
TAP	89	336	1
HLD	90	48	5	144
TAP	90	96	4
TAP	90	144	3
HLD	90	192	1	144
TAP	90	240	0
TAP	90	288	7
HLD	90	336	5	96
STR	91	48	3
SCL	91	48	3	96	96	7
TAP	91	96	5
STR	91	144	7
SCL	91	144	7	96	96	3
STR	91	240	3
SF_	91	240	3	96	72	7
TAP	92	96	1
TAP	92	96	5
TAP	92	192	6
STR	92	240	7
SCL	92	240	7	96	48	4
TAP	92	288	0
TAP	92	336	1
STR	93	48	0
SCR	93	48	0	96	48	3
TAP	93	96	7
TAP	93	144	6
HLD	93	240	4	96
TAP	93	336	3
STR	94	0	3
SCL	94	0	3	96	48	1
STR	94	0	4
SCR	94	0	4	96	48	6
TAP	94	192	2
TAP	94	224	2
TAP	94	256	5
TAP	94	288	2
TAP	94	320	2
TAP	94	352	6
TAP	95	0	2
TAP	95	32	2
TAP	95	64	7
STR	95	96	2
SCL	95	96	2	96	96	5
TAP	95	128	2
TAP	95	160	0
BRK	95	192	2
HLD	96	0	6	192
TAP	96	48	4
TAP	96	96	3
TAP	96	144	2
TAP	96	192	1
TAP	96	240	3
TAP	96	240	4
TAP	96	288	6
TAP	96	336	3
TAP	96	336	4
HLD	97	0	1	192
TAP	97	48	3
TAP	97	96	4
TAP	97	144	5
STR	97	192	6
SCR	97	192	6	96	48	1
TAP	98	0	3
TAP	98	0	4
TAP	98	48	5
TAP	98	96	3
TAP	98	96	4
TAP	98	144	2
TAP	98	192	3
TAP	98	192	4
TAP	98	240	6
TAP	98	288	3
TAP	98	288	4
TAP	98	336	1
TAP	99	0	3
TAP	99	0	4
TAP	99	48	7
TAP	99	96	3
TAP	99	96	4
TAP	99	144	0
TAP	99	192	2
TAP	99	192	3
TAP	99	240	7
TAP	99	288	4
TAP	99	288	5
TAP	99	336	0
TAP	100	0	2
TAP	100	0	3
TAP	100	48	5
TAP	100	48	6
TAP	100	96	0
TAP	100	96	2
TAP	100	144	3
TAP	100	144	4
TAP	100	192	5
TAP	100	192	7
TAP	100	240	1
TAP	100	240	2
TAP	100	288	4
TAP	100	288	6
TAP	100	336	0
TAP	100	336	7
TAP	101	0	2
TAP	101	24	3
TAP	101	48	7
TAP	101	72	6
TAP	101	96	4
TAP	101	120	5
TAP	101	144	1
TAP	101	168	0
TAP	101	192	3
TAP	101	216	4
TAP	101	240	7
TAP	101	264	6
BST	101	288	0
SI_	101	288	0	96	48	3
BST	101	288	5
SCL	101	288	5	96	48	3
BRK	101	336	0
BRK	101	336	5

T_REC_TAP	548
T_REC_BRK	22
T_REC_XTP	0
T_REC_HLD	41
T_REC_XHO	0
T_REC_STR	110
T_REC_BST	20
T_REC_XST	0
T_REC_TTP	0
T_REC_THO	0
T_REC_SLD	131
T_REC_ALL	872
T_NUM_TAP	658
T_NUM_BRK	42
T_NUM_HLD	41
T_NUM_SLD	131
T_NUM_ALL	872
T_JUDGE_TAP	700
T_JUDGE_HLD	147
T_JUDGE_SLD	131
T_JUDGE_ALL	978
TTM_EACHPAIRS	176
TTM_SCR_TAP	329000
TTM_SCR_BRK	109200
TTM_SCR_HLD	41000
TTM_SCR_SLD	196500
TTM_SCR_ALL	675700
TTM_SCR_S	651400
TTM_SCR_SS	671500
TTM_RAT_ACV	10062

