VERSION	0.00.00	1.03.00
FES_MODE	0
BPM_DEF	185.000	185.000	185.000	185.000
MET_DEF	4	4
RESOLUTION	384
CLK_DEF	384
COMPATIBLE_CODE	MA2

BPM	0	0	185.000
MET	0	0	4	4

BRK	2	336	0
BRK	2	336	7
TAP	4	144	1
TAP	4	144	6
TAP	4	240	2
TAP	4	240	5
TAP	4	336	3
STR	4	336	4
SSL	4	336	4	96	336	0
STR	6	336	5
SCL	6	336	5	96	192	2
TAP	7	336	0
TAP	8	48	1
TAP	8	144	2
TAP	8	240	3
STR	8	336	0
SCR	8	336	0	96	240	3
STR	8	336	4
SCR	8	336	4	96	240	7
TAP	10	0	2
TAP	10	0	5
TAP	10	96	2
TAP	10	96	5
TAP	10	192	3
TAP	10	240	3
TAP	10	288	4
TAP	10	336	4
TAP	11	0	2
TAP	11	48	2
TAP	11	96	5
TAP	11	144	5
TAP	11	192	1
TAP	11	240	1
TAP	11	288	6
HLD	11	336	6	96
TAP	12	48	7
TAP	12	96	6
TAP	12	192	2
TAP	12	240	3
TAP	12	288	2
HLD	12	336	4	96
TAP	13	48	3
TAP	13	96	4
TAP	13	192	6
TAP	13	240	7
TAP	13	288	6
HLD	13	336	1	96
TAP	14	48	0
TAP	14	96	1
TAP	14	192	5
TAP	14	240	4
TAP	14	288	5
HLD	14	336	3	96
TAP	15	48	4
TAP	15	96	3
TAP	15	144	4
STR	15	240	1
SCR	15	240	1	96	48	3
STR	15	240	6
SCL	15	240	6	96	48	4
TAP	16	96	0
TAP	16	96	7
TAP	16	192	1
TAP	16	240	0
TAP	16	288	1
HLD	16	336	6	96
TAP	17	48	7
TAP	17	96	6
TAP	17	192	2
TAP	17	240	3
TAP	17	288	2
HLD	17	336	4	96
TAP	18	48	3
TAP	18	96	4
TAP	18	192	1
TAP	18	240	0
STR	18	288	1
SI_	18	288	1	96	48	4
STR	19	0	5
SI_	19	0	5	96	48	0
STR	19	96	1
SI_	19	96	1	96	48	4
TAP	19	192	5
TAP	19	288	2
TAP	19	288	6
HLD	19	336	2	96
TAP	19	336	6
TAP	20	48	3
TAP	20	96	2
TAP	20	192	6
TAP	20	240	7
TAP	20	288	6
HLD	20	336	0	96
TAP	21	48	7
TAP	21	96	0
TAP	21	192	2
TAP	21	240	3
TAP	21	288	2
HLD	21	336	5	96
TAP	22	48	4
TAP	22	96	5
TAP	22	192	1
TAP	22	240	0
TAP	22	288	1
HLD	22	336	7	96
TAP	23	48	0
TAP	23	96	7
TAP	23	144	0
STR	23	240	2
SCL	23	240	2	96	48	0
STR	23	240	5
SCR	23	240	5	96	48	7
TAP	24	96	3
TAP	24	96	4
TAP	24	192	5
TAP	24	240	4
TAP	24	288	5
HLD	24	336	2	96
TAP	25	48	3
TAP	25	96	2
TAP	25	192	7
TAP	25	240	0
TAP	25	288	7
TAP	25	336	0
STR	26	0	7
SCL	26	0	7	96	48	4
TAP	26	96	3
STR	26	192	2
SCL	26	192	2	96	48	7
TAP	26	288	6
STR	27	0	5
SCL	27	0	5	96	48	2
TAP	27	96	1
TAP	27	192	0
TAP	27	240	7
TAP	27	288	0
TAP	27	336	7
STR	28	0	0
SCR	28	0	0	96	48	3
TAP	28	96	4
STR	28	192	5
SCR	28	192	5	96	48	0
TAP	28	288	1
STR	29	0	2
SCR	29	0	2	96	48	5
TAP	29	96	6
TAP	29	192	7
TAP	29	240	0
TAP	29	288	7
TAP	29	336	0
TAP	30	0	7
STR	30	48	0
SI_	30	48	0	96	48	4
HLD	30	288	5	96
HLD	31	0	4	144
HLD	31	144	3	144
STR	31	288	2
SCR	31	288	2	96	144	5
HLD	32	288	6	96
HLD	33	0	4	144
HLD	33	144	3	144
STR	33	288	1
SCR	33	288	1	96	144	4
HLD	34	288	1	96
HLD	35	0	3	144
HLD	35	144	4	144
HLD	35	288	6	96
HLD	36	0	4	144
HLD	36	144	3	144
STR	36	288	2
SCL	36	288	2	96	240	5
TAP	38	0	7
STR	38	48	7
SI_	38	48	7	96	48	3
HLD	38	288	2	96
HLD	39	0	3	144
HLD	39	144	4	144
STR	39	288	5
SCL	39	288	5	96	144	2
HLD	40	288	1	96
HLD	41	0	3	144
HLD	41	144	4	144
HLD	41	288	6	96
HLD	42	0	4	144
HLD	42	144	3	144
TAP	42	288	1
HLD	43	0	2	96
HLD	43	96	0	96
HLD	43	192	7	96
STR	43	288	5
SCR	43	288	5	96	288	2
STR	45	0	3
SI_	45	0	3	96	48	0
STR	45	192	4
SI_	45	192	4	96	48	7
HLD	46	0	0	576
TAP	46	96	7
TAP	46	192	6
TAP	46	288	5
TAP	46	336	5
TAP	47	48	4
TAP	47	144	3
TAP	47	192	3
TAP	47	288	1
TAP	47	288	2
HLD	48	0	3	576
TAP	48	96	4
TAP	48	192	5
TAP	48	288	6
TAP	48	336	6
TAP	49	48	7
TAP	49	144	0
TAP	49	192	0
TAP	49	288	1
TAP	49	288	2
HLD	50	0	7	576
TAP	50	96	0
TAP	50	192	1
TAP	50	288	2
TAP	50	336	2
TAP	51	48	3
TAP	51	144	4
TAP	51	192	4
TAP	51	288	5
TAP	51	288	6
HLD	52	0	4	576
TAP	52	96	3
TAP	52	192	2
TAP	52	288	1
TAP	52	336	1
TAP	53	48	0
TAP	53	144	7
TAP	53	192	7
TAP	53	288	5
TAP	53	288	6
STR	54	0	0
SI_	54	0	0	96	48	3
SI_	54	0	0	96	48	5
TAP	54	192	4
TAP	54	240	4
TAP	54	288	2
TAP	54	336	2
STR	55	0	6
SI_	55	0	6	96	48	1
SI_	55	0	6	96	48	3
TAP	55	192	2
TAP	55	240	2
TAP	55	288	6
TAP	55	336	6
STR	56	0	4
SI_	56	0	4	96	48	1
SI_	56	0	4	96	48	7
TAP	56	192	0
TAP	56	240	0
TAP	56	288	6
TAP	56	336	6
STR	57	0	2
SI_	57	0	2	96	48	5
SI_	57	0	2	96	48	7
TAP	57	192	6
TAP	57	240	6
TAP	57	288	4
TAP	57	336	4
STR	58	0	0
SF_	58	0	0	96	48	4
TAP	58	192	6
TAP	58	240	6
TAP	58	288	2
TAP	58	336	2
STR	59	0	7
SF_	59	0	7	96	48	3
TAP	59	192	1
TAP	59	240	1
TAP	59	288	0
TAP	59	288	7
TAP	60	0	3
TAP	60	0	5
TAP	60	48	3
TAP	60	48	5
TAP	60	144	1
TAP	60	144	4
TAP	60	192	1
TAP	60	192	4
TAP	60	288	2
TAP	60	288	6
TAP	60	336	2
TAP	60	336	6
TAP	61	48	0
TAP	61	48	5
TAP	61	96	0
TAP	61	96	5
STR	61	192	3
SV_	61	192	3	96	48	1
STR	61	192	7
SV_	61	192	7	96	48	5
TAP	62	0	0
TAP	62	0	4
TAP	62	48	0
TAP	62	48	4
TAP	62	96	1
TAP	62	96	5
TAP	62	144	1
TAP	62	144	5
TAP	62	192	2
TAP	62	192	6
TAP	62	240	2
TAP	62	240	6
STR	62	288	3
SXR	62	288	3	96	240	0
STR	62	288	7
SXR	62	288	7	96	240	4
BRK	63	336	1
BRK	63	336	6
TAP	64	48	3
TAP	64	48	4
TAP	64	96	3
TAP	64	96	4
TAP	64	192	1
TAP	64	240	0
TAP	64	288	2
TAP	64	288	7
TAP	65	0	3
TAP	65	48	4
TAP	65	96	5
HLD	65	144	6	96
HLD	65	240	7	96
HLD	65	336	0	96
TAP	66	48	1
TAP	66	96	2
TAP	66	96	7
TAP	66	192	5
TAP	66	240	4
TAP	66	288	3
TAP	66	288	6
TAP	67	0	2
TAP	67	48	3
TAP	67	96	1
TAP	67	96	4
TAP	67	192	0
TAP	67	192	7
TAP	67	240	0
TAP	67	240	7
TAP	67	288	0
TAP	67	288	7
STR	67	336	1
SI_	67	336	1	96	48	5
TAP	67	336	6
TAP	68	48	7
TAP	68	96	7
TAP	68	192	3
TAP	68	240	2
TAP	68	240	4
TAP	68	336	1
STR	68	336	6
SI_	68	336	6	96	48	2
TAP	69	48	0
TAP	69	96	0
TAP	69	192	4
TAP	69	240	3
TAP	69	240	5
STR	69	336	1
SI_	69	336	1	96	48	5
TAP	69	336	6
TAP	70	48	7
TAP	70	96	7
TAP	70	192	3
TAP	70	240	2
TAP	70	240	4
TAP	70	288	1
TAP	70	288	5
TAP	71	0	7
TAP	71	48	7
TAP	71	96	3
TAP	71	144	3
TAP	71	192	2
TAP	71	192	4
TAP	71	240	1
TAP	71	240	5
TAP	71	288	0
TAP	71	288	6
BST	71	336	7
SI_	71	336	7	96	48	3
TAP	72	48	0
TAP	72	96	0
TAP	72	192	6
TAP	72	240	7
TAP	72	288	0
TAP	72	288	5
TAP	73	0	4
TAP	73	48	3
TAP	73	96	2
HLD	73	144	1	96
HLD	73	240	0	96
HLD	73	336	7	96
TAP	74	48	6
TAP	74	96	0
TAP	74	96	5
TAP	74	192	2
TAP	74	240	3
TAP	74	288	1
TAP	74	288	4
TAP	75	0	5
TAP	75	48	4
TAP	75	96	3
TAP	75	96	6
TAP	75	192	0
TAP	75	192	7
TAP	75	240	1
TAP	75	240	6
TAP	75	288	2
TAP	75	288	5
STR	75	336	3
SI_	75	336	3	96	48	0
TAP	75	336	4
TAP	76	48	7
STR	76	96	7
SI_	76	96	7	96	48	4
TAP	76	192	3
TAP	76	240	3
BST	76	336	1
SI_	76	336	1	96	48	5
BST	77	48	0
SI_	77	48	0	96	48	4
BST	77	144	7
SI_	77	144	7	96	48	3
BST	77	240	6
SI_	77	240	6	96	48	2
BST	77	336	5
SI_	77	336	5	96	48	1
BRK	78	48	7
TAP	78	240	0
TAP	78	288	7
TAP	78	336	0
TAP	79	0	1
TAP	79	0	6
TAP	79	96	2
TAP	79	96	5
TAP	79	144	2
TAP	79	144	5
STR	79	240	3
SCL	79	240	3	96	96	0
STR	79	240	4
SCR	79	240	4	96	96	7
STR	80	96	1
SI_	80	96	1	96	48	5
TAP	80	96	6
STR	80	192	0
SI_	80	192	0	96	48	6
STR	80	288	1
SI_	80	288	1	96	48	4
STR	81	0	0
SI_	81	0	0	96	48	5
STR	81	96	1
SI_	81	96	1	96	48	3
STR	81	192	0
SI_	81	192	0	96	48	4
STR	81	288	1
SCL	81	288	1	96	48	6
TAP	82	96	1
STR	82	96	6
SI_	82	96	6	96	48	2
STR	82	192	7
SI_	82	192	7	96	48	1
STR	82	288	6
SI_	82	288	6	96	48	3
STR	83	0	7
SI_	83	0	7	96	48	2
STR	83	96	6
SI_	83	96	6	96	48	4
STR	83	192	7
SI_	83	192	7	96	48	3
STR	83	288	6
SCR	83	288	6	96	48	1
TAP	84	96	1
TAP	84	96	6
TAP	84	192	3
TAP	84	192	4
STR	84	240	3
SI_	84	240	3	96	48	7
TAP	84	240	4
STR	84	336	5
SI_	84	336	5	96	48	0
STR	85	48	2
SI_	85	48	2	96	48	7
STR	85	144	4
SI_	85	144	4	96	48	0
STR	85	240	3
SCL	85	240	3	96	240	4
TAP	86	288	0
TAP	86	288	7
TAP	87	0	1
TAP	87	48	1
TAP	87	96	6
TAP	87	144	6
TAP	87	192	0
TAP	87	216	7
TAP	87	240	0
TAP	87	264	7
TAP	87	288	0
TAP	87	312	7
BRK	87	336	0
TAP	88	48	3
TAP	88	48	4
TAP	88	96	3
TAP	88	96	4
TAP	88	192	6
TAP	88	240	7
TAP	88	288	6
HLD	88	336	0	96
TAP	89	48	7
TAP	89	96	0
TAP	89	192	2
TAP	89	240	3
TAP	89	288	2
HLD	89	336	5	96
TAP	90	48	4
TAP	90	96	5
TAP	90	192	1
TAP	90	240	0
TAP	90	288	1
HLD	90	336	7	96
TAP	91	48	0
TAP	91	96	7
TAP	91	144	0
STR	91	240	2
SCL	91	240	2	96	48	0
STR	91	240	5
SCR	91	240	5	96	48	7
TAP	92	96	3
TAP	92	96	4
TAP	92	192	5
TAP	92	240	4
TAP	92	288	5
HLD	92	336	2	96
TAP	93	48	3
TAP	93	96	2
TAP	93	192	7
TAP	93	240	0
TAP	93	288	7
TAP	93	336	0
STR	94	0	7
SCL	94	0	7	96	48	4
TAP	94	96	3
STR	94	192	2
SCL	94	192	2	96	48	7
TAP	94	288	6
STR	95	0	5
SCL	95	0	5	96	48	2
TAP	95	96	1
TAP	95	192	0
TAP	95	240	7
TAP	95	288	0
TAP	95	336	7
STR	96	0	0
SCR	96	0	0	96	48	3
TAP	96	96	4
STR	96	192	5
SCR	96	192	5	96	48	0
TAP	96	288	1
TAP	97	0	2
TAP	97	0	3
STR	97	96	4
SUR	97	96	4	96	144	3
STR	97	96	5
SCR	97	96	5	96	144	2
TAP	98	0	0
TAP	98	0	7
TAP	98	48	7
TAP	98	96	0
TAP	98	96	7
STR	98	144	7
SI_	98	144	7	96	48	3
TAP	98	192	0
TAP	98	288	1
TAP	98	336	1
TAP	99	0	1
TAP	99	0	6
STR	99	48	1
SI_	99	48	1	96	48	4
TAP	99	96	6
TAP	99	192	5
TAP	99	240	5
TAP	99	288	3
TAP	99	288	5
STR	99	336	5
SI_	99	336	5	96	48	0
TAP	100	0	3
TAP	100	96	2
TAP	100	144	2
TAP	100	192	2
TAP	100	192	4
STR	100	240	2
SI_	100	240	2	96	48	6
TAP	100	288	4
TAP	101	0	5
TAP	101	48	5
TAP	101	96	4
TAP	101	96	6
TAP	101	144	4
TAP	101	144	6
TAP	101	192	3
TAP	101	192	7
TAP	101	240	3
TAP	101	240	7
STR	101	288	0
SI_	101	288	0	96	48	5
STR	101	288	2
SI_	101	288	2	96	48	7
BRK	101	336	0
BRK	101	336	2

T_REC_TAP	383
T_REC_BRK	8
T_REC_XTP	0
T_REC_HLD	49
T_REC_XHO	0
T_REC_STR	77
T_REC_BST	6
T_REC_XST	0
T_REC_TTP	0
T_REC_THO	0
T_REC_SLD	87
T_REC_ALL	610
T_NUM_TAP	460
T_NUM_BRK	14
T_NUM_HLD	49
T_NUM_SLD	87
T_NUM_ALL	610
T_JUDGE_TAP	474
T_JUDGE_HLD	152
T_JUDGE_SLD	87
T_JUDGE_ALL	713
TTM_EACHPAIRS	89
TTM_SCR_TAP	230000
TTM_SCR_BRK	36400
TTM_SCR_HLD	49000
TTM_SCR_SLD	130500
TTM_SCR_ALL	445900
TTM_SCR_S	431200
TTM_SCR_SS	444500
TTM_RAT_ACV	10031

