VERSION	0.00.00	1.03.00
FES_MODE	0
BPM_DEF	185.000	185.000	185.000	185.000
MET_DEF	4	4
RESOLUTION	384
CLK_DEF	384
COMPATIBLE_CODE	MA2

BPM	0	0	185.000
MET	0	0	4	4

STR	3	0	0
SSL	3	0	0	96	288	4
TAP	3	0	7
TAP	4	192	3
TAP	4	192	4
STR	5	0	3
SSR	5	0	3	96	288	7
TAP	5	0	4
TAP	6	192	0
TAP	6	192	7
TAP	7	0	0
STR	7	0	1
SSR	7	0	1	96	288	5
TAP	8	192	4
TAP	8	192	5
STR	9	0	3
SCL	9	0	3	96	192	0
STR	9	0	4
SCR	9	0	4	96	192	7
TAP	10	0	6
TAP	10	96	6
TAP	10	96	7
TAP	10	192	6
TAP	10	288	6
TAP	10	288	7
TAP	11	0	0
TAP	11	0	1
TAP	11	96	2
TAP	11	96	7
BRK	11	192	3
BRK	11	192	6
TAP	12	0	4
TAP	12	96	3
TAP	12	96	4
TAP	12	192	2
TAP	12	288	2
TAP	13	0	1
TAP	13	96	0
TAP	13	192	0
TAP	13	192	1
TAP	14	0	4
TAP	14	96	3
TAP	14	96	4
TAP	14	192	5
TAP	14	288	5
TAP	15	0	6
TAP	15	96	7
TAP	15	192	6
TAP	15	192	7
TAP	16	0	2
TAP	16	96	2
TAP	16	96	3
TAP	16	192	2
TAP	16	288	1
TAP	16	288	3
TAP	17	0	5
TAP	17	96	4
TAP	17	96	5
TAP	17	192	5
STR	17	288	4
SSL	17	288	4	96	384	0
TAP	17	288	6
TAP	19	192	1
TAP	19	192	7
TAP	19	288	2
TAP	19	288	6
TAP	20	0	3
TAP	20	96	2
TAP	20	96	4
TAP	20	192	3
TAP	20	288	3
TAP	21	0	4
TAP	21	96	5
TAP	21	192	3
TAP	21	192	6
TAP	22	0	4
TAP	22	96	3
TAP	22	96	5
TAP	22	192	4
TAP	22	288	4
TAP	23	0	3
TAP	23	96	2
TAP	23	192	1
TAP	23	192	3
TAP	24	0	4
TAP	24	96	3
TAP	24	96	4
TAP	24	192	2
TAP	24	192	5
TAP	25	0	5
TAP	25	96	4
TAP	25	96	5
TAP	25	192	2
TAP	25	288	2
TAP	25	288	3
TAP	26	0	4
STR	26	0	5
SCR	26	0	5	96	480	2
TAP	28	0	3
TAP	28	96	2
TAP	28	96	4
TAP	28	192	5
TAP	28	288	4
TAP	28	288	6
TAP	29	0	3
TAP	29	96	2
TAP	29	96	4
BRK	29	192	1
BRK	29	192	5
HLD	30	0	2	192
HLD	30	192	3	192
TAP	31	0	4
TAP	31	96	4
TAP	31	192	4
TAP	31	192	5
HLD	32	0	5	192
HLD	32	192	4	192
TAP	33	0	3
TAP	33	96	3
TAP	33	192	2
TAP	33	192	3
HLD	34	0	1	192
HLD	34	192	2	192
TAP	35	0	3
TAP	35	96	3
TAP	35	192	3
TAP	35	192	4
HLD	36	0	6	192
HLD	36	192	7	192
TAP	37	0	0
TAP	37	96	0
TAP	37	192	1
TAP	37	192	7
TAP	38	0	1
TAP	38	96	2
TAP	38	192	3
TAP	38	192	4
TAP	39	0	4
TAP	39	96	4
TAP	39	192	3
TAP	39	192	4
TAP	40	0	6
TAP	40	96	5
TAP	40	192	3
TAP	40	192	4
TAP	41	0	3
TAP	41	96	4
TAP	41	192	3
TAP	41	192	4
TAP	42	0	3
TAP	42	96	2
TAP	42	192	0
TAP	42	192	1
TAP	43	0	4
TAP	43	96	5
TAP	43	192	6
TAP	43	192	7
STR	43	288	6
SCL	43	288	6	96	240	2
TAP	43	288	7
HLD	45	0	0	96
HLD	45	0	1	96
HLD	45	192	6	96
HLD	45	192	7	96
TAP	46	0	4
STR	46	0	5
SI_	46	0	5	96	144	0
TAP	47	0	1
TAP	47	96	1
TAP	47	192	0
TAP	47	192	2
STR	48	0	2
SI_	48	0	2	96	144	7
TAP	48	0	3
TAP	49	0	6
TAP	49	96	6
TAP	49	192	5
TAP	49	192	7
TAP	50	0	4
STR	50	0	5
SCR	50	0	5	96	144	0
TAP	51	0	1
TAP	51	96	1
TAP	51	192	0
TAP	51	192	2
STR	52	0	3
SCL	52	0	3	96	144	0
STR	52	0	4
SCR	52	0	4	96	144	7
TAP	53	0	0
TAP	53	0	7
TAP	53	96	0
TAP	53	96	7
TAP	53	192	1
TAP	53	192	6
HLD	54	0	2	288
TAP	54	96	3
TAP	54	192	3
TAP	54	288	3
TAP	55	0	3
TAP	55	0	4
TAP	55	96	4
TAP	55	96	5
TAP	55	192	3
TAP	55	192	6
HLD	56	0	5	288
TAP	56	96	4
TAP	56	192	4
TAP	56	288	4
TAP	57	0	3
TAP	57	0	4
TAP	57	96	2
TAP	57	96	3
TAP	57	192	1
TAP	57	192	4
TAP	58	0	0
TAP	58	0	1
TAP	58	96	2
TAP	58	96	7
TAP	58	192	3
TAP	58	192	6
TAP	59	0	6
TAP	59	0	7
TAP	59	96	0
TAP	59	96	5
TAP	59	192	1
TAP	59	192	4
STR	60	0	3
SXR	60	0	3	96	480	0
STR	60	0	4
SXL	60	0	4	96	480	7
TAP	62	0	0
TAP	62	0	7
TAP	62	96	0
TAP	62	96	7
TAP	62	192	1
TAP	62	192	6
TAP	62	288	1
TAP	62	288	6
TAP	63	0	2
TAP	63	0	3
TAP	63	96	4
TAP	63	96	5
BRK	63	192	3
BRK	63	192	6
TAP	64	0	4
TAP	64	96	3
TAP	64	96	5
TAP	64	192	2
TAP	64	288	1
TAP	64	288	3
TAP	65	0	4
TAP	65	96	5
TAP	65	192	6
TAP	65	192	7
TAP	65	288	0
TAP	65	288	5
TAP	66	0	1
TAP	66	96	2
TAP	66	192	3
TAP	66	288	4
TAP	66	288	5
TAP	67	0	3
TAP	67	0	6
TAP	67	192	2
TAP	67	192	5
TAP	67	288	3
TAP	67	288	4
TAP	68	0	2
TAP	68	96	2
TAP	68	96	3
TAP	68	192	2
TAP	68	288	0
TAP	68	288	1
TAP	69	0	6
TAP	69	96	6
TAP	69	96	7
TAP	69	192	6
TAP	69	288	4
TAP	69	288	5
HLD	70	0	3	96
HLD	70	0	4	96
HLD	70	192	2	96
HLD	70	192	3	96
HLD	71	0	4	96
HLD	71	0	6	96
BRK	71	192	0
BRK	71	192	7
TAP	72	0	2
TAP	72	96	1
TAP	72	96	3
TAP	72	192	0
TAP	72	288	1
TAP	72	288	7
TAP	73	0	0
TAP	73	0	6
TAP	73	96	1
TAP	73	96	5
TAP	73	192	2
TAP	73	192	4
TAP	74	0	1
TAP	74	0	3
TAP	74	96	1
TAP	74	96	3
TAP	74	192	4
TAP	74	192	6
TAP	74	288	4
TAP	74	288	6
TAP	75	0	2
TAP	75	0	3
TAP	75	96	1
TAP	75	96	4
TAP	75	192	0
TAP	75	192	5
TAP	76	0	6
TAP	76	96	5
TAP	76	96	7
TAP	76	192	0
TAP	76	288	1
TAP	76	288	7
TAP	77	0	2
TAP	77	96	1
TAP	77	96	3
TAP	77	192	5
BST	77	288	4
SCL	77	288	4	96	192	0
BRK	77	288	6
TAP	79	0	6
TAP	79	0	7
TAP	79	96	0
TAP	79	96	1
TAP	79	192	2
TAP	79	192	7
HLD	80	0	2	96
TAP	80	96	3
HLD	80	192	5	96
TAP	80	288	4
HLD	81	0	1	96
TAP	81	96	0
TAP	81	192	2
TAP	81	192	7
TAP	81	288	3
TAP	81	288	6
HLD	82	0	5	96
TAP	82	96	4
HLD	82	192	2	96
TAP	82	288	3
HLD	83	0	6	96
TAP	83	96	7
TAP	83	192	0
TAP	83	192	5
TAP	84	0	4
TAP	84	96	5
TAP	84	192	6
TAP	84	192	7
TAP	84	288	6
TAP	84	288	7
TAP	85	0	0
TAP	85	96	1
TAP	85	192	2
TAP	85	192	3
TAP	85	288	2
TAP	85	288	3
STR	86	0	3
SV_	86	0	3	96	288	0
STR	86	0	4
SV_	86	0	4	96	288	7
BRK	87	192	1
BRK	87	192	6
TAP	88	0	2
TAP	88	96	1
TAP	88	96	3
TAP	88	192	5
TAP	88	288	4
TAP	88	288	6
TAP	89	0	7
TAP	89	96	0
TAP	89	192	1
TAP	89	192	6
TAP	89	288	1
TAP	89	288	6
TAP	90	0	2
TAP	90	0	3
TAP	90	96	1
TAP	90	96	4
TAP	90	192	4
TAP	90	192	5
TAP	90	288	3
TAP	90	288	6
TAP	91	0	2
TAP	91	96	1
TAP	91	96	3
TAP	91	192	0
TAP	91	192	4
TAP	92	0	5
TAP	92	96	4
TAP	92	96	6
TAP	92	192	2
TAP	92	288	1
TAP	92	288	3
TAP	93	0	5
TAP	93	96	6
TAP	93	96	7
TAP	93	192	2
TAP	93	288	0
STR	93	288	1
SXL	93	288	1	96	384	4
TAP	95	192	3
TAP	95	192	4
TAP	95	288	5
STR	96	0	6
SXR	96	0	6	96	336	3
TAP	96	0	7
TAP	97	192	0
TAP	97	192	7
TAP	97	288	1
TAP	98	0	2
TAP	98	96	2
TAP	98	96	3
TAP	98	192	5
TAP	98	288	4
TAP	98	288	5
TAP	99	0	2
TAP	99	96	1
TAP	99	96	3
TAP	99	192	5
TAP	99	288	4
TAP	99	288	6
TAP	100	0	7
TAP	100	96	0
TAP	100	192	1
TAP	100	192	6
STR	100	288	1
SI_	100	288	1	96	192	4
STR	100	288	6
SI_	100	288	6	96	192	3
TAP	101	288	2
TAP	101	288	5
BRK	101	336	2
BRK	101	336	5

T_REC_TAP	357
T_REC_BRK	13
T_REC_XTP	0
T_REC_HLD	26
T_REC_XHO	0
T_REC_STR	21
T_REC_BST	1
T_REC_XST	0
T_REC_TTP	0
T_REC_THO	0
T_REC_SLD	22
T_REC_ALL	440
T_NUM_TAP	378
T_NUM_BRK	14
T_NUM_HLD	26
T_NUM_SLD	22
T_NUM_ALL	440
T_JUDGE_TAP	392
T_JUDGE_HLD	76
T_JUDGE_SLD	22
T_JUDGE_ALL	490
TTM_EACHPAIRS	147
TTM_SCR_TAP	189000
TTM_SCR_BRK	36400
TTM_SCR_HLD	26000
TTM_SCR_SLD	33000
TTM_SCR_ALL	284400
TTM_SCR_S	274550
TTM_SCR_SS	283000
TTM_RAT_ACV	10049

