VERSION	0.00.00	1.03.00
FES_MODE	0
BPM_DEF	185.000	185.000	185.000	185.000
MET_DEF	4	4
RESOLUTION	384
CLK_DEF	384
COMPATIBLE_CODE	MA2

BPM	0	0	185.000
MET	0	0	4	4

TAP	7	0	0
TAP	8	0	7
STR	9	0	0
SI_	9	0	0	96	288	3
STR	9	0	7
SI_	9	0	7	96	288	4
TAP	12	0	0
TAP	12	96	0
TAP	12	192	0
TAP	13	0	1
TAP	13	96	1
TAP	13	192	1
TAP	14	0	2
TAP	14	96	2
TAP	14	192	2
TAP	15	0	3
TAP	15	96	4
TAP	15	192	3
TAP	16	0	4
TAP	16	96	4
TAP	16	192	4
TAP	17	0	5
TAP	17	96	5
TAP	17	192	5
TAP	18	0	6
TAP	18	96	6
TAP	18	192	6
TAP	19	0	7
TAP	19	96	0
BRK	19	192	7
TAP	20	0	7
TAP	20	96	7
TAP	20	192	7
TAP	21	0	6
TAP	21	96	6
TAP	21	192	6
TAP	22	0	5
TAP	22	96	5
TAP	22	192	5
TAP	23	0	4
TAP	23	96	3
TAP	23	192	4
TAP	24	0	3
TAP	24	96	3
TAP	24	192	3
TAP	25	0	2
TAP	25	96	2
TAP	25	192	2
STR	26	0	1
SI_	26	0	1	96	288	5
STR	28	0	6
SI_	28	0	6	96	288	2
HLD	30	0	0	384
HLD	32	0	1	384
HLD	34	0	2	384
HLD	36	0	3	384
TAP	38	0	4
TAP	38	192	4
TAP	39	0	4
TAP	40	0	5
TAP	40	192	5
TAP	41	0	5
TAP	42	0	6
TAP	42	192	6
TAP	43	0	6
TAP	44	0	7
TAP	44	192	7
TAP	45	0	0
TAP	45	0	7
HLD	46	0	7	192
TAP	47	0	7
TAP	47	96	7
TAP	47	192	7
HLD	48	0	6	192
TAP	49	0	6
TAP	49	96	6
TAP	49	192	6
HLD	50	0	5	192
TAP	51	0	5
TAP	51	96	5
TAP	51	192	5
HLD	52	0	4	192
TAP	53	0	3
TAP	53	0	4
TAP	53	192	3
TAP	53	192	4
TAP	54	0	3
TAP	54	96	3
TAP	54	192	3
TAP	55	0	3
TAP	55	96	3
TAP	55	192	3
TAP	55	192	4
TAP	56	0	2
TAP	56	96	2
TAP	56	192	2
TAP	57	0	2
TAP	57	96	2
TAP	57	192	2
TAP	57	192	3
TAP	58	0	1
TAP	58	96	1
TAP	58	192	1
TAP	59	0	1
TAP	59	96	1
TAP	59	192	0
TAP	59	192	1
HLD	60	0	0	384
HLD	60	0	7	384
TAP	62	0	0
TAP	62	0	7
TAP	62	96	0
TAP	62	96	7
TAP	62	192	0
TAP	62	192	7
BRK	63	0	1
BRK	63	0	6
TAP	64	0	0
TAP	64	96	0
TAP	64	192	0
TAP	65	0	1
TAP	65	96	1
TAP	65	192	1
TAP	66	0	2
TAP	66	0	3
TAP	66	192	2
TAP	66	192	3
TAP	67	0	4
TAP	67	0	5
TAP	67	192	4
TAP	67	192	5
TAP	68	0	3
TAP	68	96	3
TAP	68	192	3
TAP	69	0	4
TAP	69	96	4
TAP	69	192	4
HLD	70	0	3	192
HLD	70	0	4	192
TAP	71	0	3
TAP	71	96	3
TAP	71	192	3
TAP	72	0	4
TAP	72	96	4
TAP	72	192	4
TAP	73	0	5
TAP	73	96	5
TAP	73	192	5
TAP	74	0	6
TAP	74	0	7
TAP	74	192	6
TAP	74	192	7
TAP	75	0	0
TAP	75	0	1
TAP	75	192	0
TAP	75	192	1
TAP	76	0	7
TAP	76	96	7
TAP	76	192	7
TAP	77	0	0
TAP	77	96	0
TAP	77	192	0
HLD	78	0	0	192
HLD	78	0	7	192
TAP	79	0	0
TAP	79	96	0
TAP	79	192	7
TAP	79	288	7
STR	80	0	0
SI_	80	0	0	96	288	4
STR	82	0	7
SI_	82	0	7	96	288	3
TAP	84	0	0
TAP	84	192	0
TAP	85	0	1
TAP	85	192	1
STR	86	0	2
SI_	86	0	2	96	288	7
TAP	88	0	6
TAP	88	96	6
TAP	88	192	6
TAP	89	0	5
TAP	89	96	5
TAP	89	192	5
TAP	90	0	4
TAP	90	96	4
TAP	90	192	4
TAP	91	0	3
TAP	91	96	4
TAP	91	192	3
TAP	92	0	2
TAP	92	96	2
TAP	92	192	2
TAP	93	0	1
TAP	93	96	1
TAP	93	192	1
HLD	94	0	0	384
HLD	96	0	7	384
TAP	98	0	0
TAP	98	96	0
TAP	98	192	0
TAP	99	0	1
TAP	99	96	1
TAP	99	192	1
TAP	100	0	2
TAP	100	96	2
TAP	100	192	2
TAP	101	0	3
TAP	101	96	3
TAP	101	192	4
BRK	101	288	4

T_REC_TAP	177
T_REC_BRK	4
T_REC_XTP	0
T_REC_HLD	16
T_REC_XHO	0
T_REC_STR	7
T_REC_BST	0
T_REC_XST	0
T_REC_TTP	0
T_REC_THO	0
T_REC_SLD	7
T_REC_ALL	211
T_NUM_TAP	184
T_NUM_BRK	4
T_NUM_HLD	16
T_NUM_SLD	7
T_NUM_ALL	211
T_JUDGE_TAP	188
T_JUDGE_HLD	96
T_JUDGE_SLD	7
T_JUDGE_ALL	291
TTM_EACHPAIRS	22
TTM_SCR_TAP	92000
TTM_SCR_BRK	10400
TTM_SCR_HLD	16000
TTM_SCR_SLD	10500
TTM_SCR_ALL	128900
TTM_SCR_S	124650
TTM_SCR_SS	128500
TTM_RAT_ACV	10031

