VERSION	0.00.00	1.03.00
FES_MODE	0
BPM_DEF	200.000	200.000	200.000	200.000
MET_DEF	4	4
RESOLUTION	384
CLK_DEF	384
COMPATIBLE_CODE	MA2

BPM	0	0	200.000
MET	0	0	4	4

TAP	2	0	4
TAP	2	48	3
TAP	2	96	2
TAP	2	96	5
TAP	2	144	3
TAP	2	192	4
TAP	2	240	3
TAP	2	288	2
TAP	2	288	5
TAP	2	336	3
TAP	3	0	3
TAP	3	0	4
TAP	3	48	3
TAP	3	48	4
TAP	3	96	2
TAP	3	96	5
TAP	3	144	3
TAP	3	168	4
TAP	3	192	3
TAP	3	216	4
TAP	3	240	3
BRK	3	288	7
TAP	4	0	3
TAP	4	48	4
TAP	4	96	2
TAP	4	96	5
TAP	4	144	4
TAP	4	192	3
TAP	4	240	4
TAP	4	288	2
TAP	4	288	5
TAP	4	336	4
TAP	5	0	0
TAP	5	48	1
TAP	5	48	7
TAP	5	96	2
TAP	5	96	6
TAP	5	144	3
TAP	5	144	5
STR	5	192	4
SI_	5	192	4	96	48	1
SI_	5	192	4	96	48	7
BRK	5	288	4
TAP	6	0	3
TAP	6	48	2
TAP	6	96	1
TAP	6	96	4
TAP	6	144	2
TAP	6	192	3
TAP	6	240	2
TAP	6	288	1
TAP	6	288	4
TAP	6	336	2
TAP	7	0	4
TAP	7	48	5
TAP	7	96	3
TAP	7	96	6
TAP	7	144	5
TAP	7	192	4
TAP	7	240	5
TAP	7	288	3
TAP	7	288	6
TAP	7	336	5
TAP	8	0	3
TAP	8	0	7
TAP	8	72	2
TAP	8	72	6
TAP	8	96	2
TAP	8	96	6
TAP	8	144	1
TAP	8	144	5
STR	8	192	0
SI_	8	192	0	96	48	3
STR	8	192	4
SI_	8	192	4	96	48	7
TAP	8	288	0
TAP	8	288	4
STR	9	0	2
SI_	9	0	2	96	48	7
STR	9	0	6
SI_	9	0	6	96	48	3
TAP	9	48	2
TAP	9	48	6
TAP	9	96	2
TAP	9	96	6
BRK	9	192	1
BRK	9	192	5
TAP	9	288	3
TAP	9	312	4
TAP	9	336	3
TAP	9	360	4
TAP	10	0	2
TAP	10	0	5
TAP	10	48	1
TAP	10	72	0
TAP	10	120	0
TAP	10	144	1
STR	10	192	6
SI_	10	192	6	96	48	3
TAP	10	240	7
TAP	10	288	0
TAP	10	288	6
TAP	11	0	4
TAP	11	0	5
TAP	11	48	6
TAP	11	72	7
TAP	11	120	7
TAP	11	144	6
STR	11	192	1
SI_	11	192	1	96	48	4
TAP	11	240	0
TAP	11	288	1
TAP	11	288	7
TAP	12	0	2
TAP	12	0	3
TAP	12	48	1
TAP	12	72	0
TAP	12	120	0
TAP	12	144	1
STR	12	192	6
SI_	12	192	6	96	48	3
TAP	12	240	7
TAP	12	288	0
TAP	12	288	6
STR	13	0	0
SI_	13	0	0	96	48	4
STR	13	96	0
SCL	13	96	0	96	48	5
SCR	13	96	0	96	48	3
TAP	13	192	0
TAP	13	288	4
TAP	13	312	3
TAP	13	336	4
TAP	13	360	3
TAP	14	0	2
TAP	14	0	5
TAP	14	48	6
TAP	14	72	7
TAP	14	120	7
TAP	14	144	6
STR	14	192	1
SI_	14	192	1	96	48	5
STR	14	240	7
SI_	14	240	7	96	48	3
TAP	14	288	1
TAP	14	336	7
TAP	15	0	2
TAP	15	48	1
TAP	15	72	0
TAP	15	120	0
TAP	15	144	1
STR	15	192	6
SI_	15	192	6	96	48	2
STR	15	240	0
SI_	15	240	0	96	48	4
TAP	15	288	6
TAP	15	336	0
TAP	16	0	5
TAP	16	48	6
TAP	16	72	7
TAP	16	120	7
TAP	16	144	6
STR	16	192	1
SI_	16	192	1	96	48	5
STR	16	240	7
SI_	16	240	7	96	48	3
TAP	16	288	1
TAP	16	336	7
STR	17	0	0
SI_	17	0	0	96	48	2
STR	17	48	4
SI_	17	48	4	96	48	6
STR	17	96	0
SI_	17	96	0	96	48	4
STR	17	144	4
SF_	17	144	4	96	48	0
TAP	17	192	0
TAP	18	0	6
TAP	18	48	6
TAP	18	96	1
TAP	18	144	5
TAP	18	192	5
TAP	18	240	1
TAP	18	288	4
TAP	18	336	4
TAP	19	0	1
TAP	19	48	3
TAP	19	96	3
TAP	19	144	1
STR	19	192	2
SI_	19	192	2	96	48	6
TAP	19	240	2
TAP	20	0	1
TAP	20	48	1
TAP	20	96	6
TAP	20	144	2
TAP	20	192	2
TAP	20	240	6
TAP	20	288	3
TAP	20	336	3
TAP	21	0	6
TAP	21	48	4
TAP	21	96	4
TAP	21	144	6
STR	21	192	5
SI_	21	192	5	96	48	1
BRK	21	288	7
STR	22	0	4
SCR	22	0	4	96	96	0
STR	22	96	0
SCR	22	96	0	96	96	4
STR	22	192	4
SF_	22	192	4	96	48	0
TAP	23	0	2
TAP	23	0	7
STR	23	48	1
SI_	23	48	1	96	24	4
TAP	23	72	0
TAP	23	120	0
TAP	23	144	1
STR	23	192	7
SI_	23	192	7	96	24	3
TAP	23	216	0
TAP	23	264	0
TAP	23	288	7
TAP	24	0	0
TAP	24	0	5
STR	24	48	6
SI_	24	48	6	96	24	3
TAP	24	72	7
TAP	24	120	7
TAP	24	144	6
STR	24	192	0
SI_	24	192	0	96	24	4
TAP	24	216	7
TAP	24	264	7
TAP	24	288	0
TAP	25	0	2
TAP	25	0	7
STR	25	48	1
SI_	25	48	1	96	24	4
TAP	25	72	0
TAP	25	120	0
TAP	25	144	1
STR	25	192	7
SI_	25	192	7	96	24	3
TAP	25	216	0
TAP	25	264	0
TAP	25	288	7
STR	26	0	0
SF_	26	0	0	96	48	4
TAP	26	96	0
STR	26	192	7
SF_	26	192	7	96	48	3
TAP	26	288	7
TAP	27	0	0
TAP	27	0	5
STR	27	48	6
SI_	27	48	6	96	24	3
TAP	27	72	7
TAP	27	120	7
TAP	27	144	6
STR	27	192	0
SI_	27	192	0	96	24	4
TAP	27	216	7
TAP	27	264	7
TAP	27	288	0
STR	28	0	0
SCR	28	0	0	96	48	3
STR	28	0	4
SCR	28	0	4	96	48	7
TAP	28	96	0
TAP	28	96	4
TAP	28	192	0
TAP	28	192	4
TAP	28	240	3
TAP	28	240	7
TAP	28	288	2
TAP	28	288	6
TAP	28	336	1
TAP	28	336	5
TAP	29	0	0
TAP	29	0	4
TAP	29	72	1
TAP	29	72	5
TAP	29	96	1
TAP	29	96	5
TAP	29	144	2
TAP	29	144	6
STR	29	192	3
SI_	29	192	3	96	48	0
STR	29	192	7
SI_	29	192	7	96	48	4
TAP	29	288	3
TAP	29	288	7
STR	30	0	1
SI_	30	0	1	96	48	4
STR	30	0	5
SI_	30	0	5	96	48	0
TAP	30	48	1
TAP	30	48	5
TAP	30	96	1
TAP	30	96	5
BRK	30	192	2
BRK	30	192	6
TAP	31	0	3
TAP	31	48	2
TAP	31	96	1
TAP	31	96	4
TAP	31	144	2
TAP	31	192	3
TAP	31	240	2
TAP	31	288	1
TAP	31	288	4
TAP	31	336	2
TAP	32	0	0
TAP	32	0	7
TAP	32	48	0
TAP	32	48	7
TAP	32	72	1
TAP	32	72	6
TAP	32	96	2
TAP	32	96	5
TAP	32	144	1
TAP	32	144	6
TAP	32	192	1
STR	32	192	6
SI_	32	192	6	96	48	3
BRK	32	288	0
TAP	33	0	4
TAP	33	48	5
TAP	33	96	3
TAP	33	96	6
TAP	33	144	5
TAP	33	192	4
TAP	33	240	5
TAP	33	288	3
TAP	33	288	6
TAP	33	336	5
TAP	34	0	6
TAP	34	24	6
TAP	34	72	1
TAP	34	96	1
TAP	34	144	0
TAP	34	144	7
TAP	34	192	2
TAP	34	192	5
TAP	34	240	1
TAP	34	264	0
TAP	34	288	7
TAP	34	312	6
TAP	34	336	5
TAP	34	360	4
TAP	35	0	3
TAP	35	48	4
TAP	35	96	2
TAP	35	96	5
TAP	35	144	4
TAP	35	192	3
TAP	35	240	4
TAP	35	288	2
TAP	35	288	5
TAP	35	336	4
HLD	36	0	2	48
HLD	36	0	5	48
HLD	36	96	2	48
HLD	36	96	5	48
HLD	36	192	3	48
HLD	36	192	4	48
HLD	36	288	3	48
HLD	36	288	4	48
TAP	37	0	2
TAP	37	0	7
TAP	37	48	1
TAP	37	96	2
TAP	37	96	7
TAP	37	144	1
TAP	37	192	0
TAP	37	192	5
TAP	37	240	6
TAP	37	288	0
TAP	37	288	5
TAP	37	336	6
TAP	38	0	2
TAP	38	0	5
TAP	38	48	3
TAP	38	72	4
TAP	38	96	3
TAP	38	144	6
TAP	38	168	7
TAP	38	216	0
TAP	38	216	5
TAP	38	264	1
TAP	38	288	0
TAP	38	336	2
TAP	38	336	7
BRK	39	0	1
BST	39	0	6
SCL	39	0	6	96	192	3
STR	40	0	1
SCR	40	0	1	96	192	4
TAP	41	0	4
TAP	41	96	4
TAP	41	192	3
TAP	41	288	3
STR	42	0	2
SCR	42	0	2	96	144	5
HLD	43	0	2	384
TAP	43	192	3
TAP	43	264	4
TAP	43	336	5
HLD	44	0	5	384
TAP	44	192	4
TAP	44	264	3
TAP	44	336	2
HLD	45	0	2	96
TAP	45	96	3
HLD	45	192	5	96
TAP	45	288	4
TAP	46	0	3
TAP	46	0	4
TAP	46	96	3
TAP	46	144	4
STR	46	192	2
SI_	46	192	2	96	48	7
STR	46	192	5
SI_	46	192	5	96	48	0
BRK	46	288	2
BRK	46	288	5
TAP	48	0	3
TAP	48	24	4
TAP	48	48	3
TAP	48	72	4
TAP	48	96	2
TAP	48	120	5
TAP	48	144	2
TAP	48	168	5
TAP	48	192	1
TAP	48	216	6
TAP	48	240	1
TAP	48	264	6
TAP	48	288	0
TAP	48	312	7
TAP	48	336	0
TAP	48	360	7
TAP	49	0	2
TAP	49	24	3
TAP	49	48	2
TAP	49	72	3
TAP	49	96	1
TAP	49	120	4
TAP	49	144	1
TAP	49	168	4
TAP	49	192	0
TAP	49	216	5
TAP	49	240	0
TAP	49	264	5
TAP	49	288	7
TAP	49	312	6
TAP	49	336	7
TAP	49	360	6
TAP	50	0	4
TAP	50	24	5
TAP	50	48	4
TAP	50	72	5
TAP	50	96	3
TAP	50	120	6
TAP	50	144	3
TAP	50	168	6
TAP	50	192	2
TAP	50	216	7
TAP	50	240	2
TAP	50	264	7
TAP	50	288	1
TAP	50	312	0
TAP	50	336	1
TAP	50	360	0
TAP	51	0	2
TAP	51	24	3
TAP	51	48	4
TAP	51	72	5
TAP	51	96	6
TAP	51	120	7
TAP	51	144	0
TAP	51	168	1
TAP	51	192	5
TAP	51	216	4
TAP	51	240	3
TAP	51	264	2
TAP	51	288	1
TAP	51	312	0
TAP	51	336	7
TAP	51	360	6
TAP	52	0	0
TAP	52	24	4
TAP	52	48	1
TAP	52	72	5
TAP	52	96	2
TAP	52	120	6
TAP	52	144	3
TAP	52	168	7
TAP	52	192	4
TAP	52	216	0
TAP	52	240	3
TAP	52	264	7
TAP	52	288	2
TAP	52	312	6
TAP	52	336	1
TAP	52	360	5
TAP	53	0	0
TAP	53	24	4
TAP	53	48	1
TAP	53	72	5
TAP	53	96	2
TAP	53	120	6
TAP	53	144	3
TAP	53	168	7
TAP	53	192	2
TAP	53	216	6
TAP	53	240	1
TAP	53	264	5
TAP	53	288	0
TAP	53	312	4
TAP	53	336	7
TAP	53	360	3
TAP	54	0	0
TAP	54	24	4
TAP	54	48	1
TAP	54	72	5
TAP	54	96	2
TAP	54	120	6
TAP	54	144	3
TAP	54	168	7
TAP	54	192	4
TAP	54	216	0
TAP	54	240	3
TAP	54	264	7
TAP	54	288	2
TAP	54	312	6
TAP	54	336	1
TAP	54	360	5
TAP	55	0	0
TAP	55	24	1
TAP	55	48	2
TAP	55	72	3
TAP	55	96	4
TAP	55	120	5
TAP	55	144	6
TAP	55	168	7
TAP	55	192	4
TAP	55	216	3
TAP	55	240	2
TAP	55	264	1
TAP	55	288	0
TAP	55	312	7
TAP	55	336	6
TAP	55	360	5
TAP	56	0	0
TAP	56	0	4
TAP	56	48	2
TAP	56	72	3
TAP	56	96	2
TAP	56	144	3
TAP	56	144	7
TAP	56	192	5
TAP	56	216	4
TAP	56	240	5
TAP	56	288	4
TAP	56	312	3
TAP	56	336	2
TAP	56	360	1
TAP	57	0	0
TAP	57	0	4
TAP	57	48	5
TAP	57	72	4
TAP	57	96	5
TAP	57	144	3
TAP	57	144	7
TAP	57	192	2
TAP	57	216	3
TAP	57	240	2
TAP	57	288	3
TAP	57	312	4
TAP	57	336	5
TAP	57	360	6
TAP	58	0	3
TAP	58	0	7
TAP	58	48	1
TAP	58	72	0
TAP	58	96	1
TAP	58	144	0
TAP	58	144	4
TAP	58	192	6
TAP	58	216	7
TAP	58	240	6
TAP	58	288	1
TAP	58	312	0
TAP	58	336	1
TAP	59	0	0
TAP	59	0	4
TAP	59	24	1
TAP	59	48	2
TAP	59	72	3
TAP	59	96	4
TAP	59	120	5
TAP	59	144	6
TAP	59	168	7
TAP	59	192	0
TAP	59	192	4
TAP	59	216	3
TAP	59	240	2
TAP	59	264	1
TAP	59	288	0
TAP	59	312	7
TAP	59	336	6
TAP	59	360	5
TAP	60	0	0
TAP	60	0	4
TAP	60	48	2
TAP	60	72	3
TAP	60	96	2
TAP	60	144	3
TAP	60	144	7
TAP	60	192	5
TAP	60	216	4
TAP	60	240	5
TAP	60	288	4
TAP	60	312	3
TAP	60	336	2
TAP	60	360	1
TAP	61	0	0
TAP	61	0	4
TAP	61	48	5
TAP	61	72	4
TAP	61	96	5
TAP	61	144	3
TAP	61	144	7
TAP	61	192	2
TAP	61	216	3
TAP	61	240	2
TAP	61	288	3
TAP	61	312	4
TAP	61	336	5
TAP	61	360	6
TAP	62	0	3
TAP	62	0	7
TAP	62	48	1
TAP	62	72	0
TAP	62	96	1
TAP	62	144	0
TAP	62	144	4
TAP	62	192	6
TAP	62	216	7
TAP	62	240	6
TAP	62	288	0
TAP	62	288	7
TAP	62	336	1
TAP	62	336	6
TAP	63	48	1
TAP	63	48	3
TAP	63	144	4
TAP	63	144	6
TAP	63	192	0
TAP	63	192	7
TAP	63	240	1
TAP	63	240	6
TAP	63	288	2
TAP	63	288	5
TAP	63	336	3
TAP	63	336	4
HLD	64	0	2	288
TAP	64	0	5
TAP	64	96	5
TAP	64	192	4
TAP	64	288	4
STR	65	0	3
SI_	65	0	3	96	48	0
SI_	65	0	3	96	48	1
STR	65	96	3
SI_	65	96	3	96	48	5
SI_	65	96	3	96	48	6
TAP	65	192	3
BRK	65	288	0
TAP	66	0	2
TAP	66	0	5
TAP	66	48	3
TAP	66	72	3
TAP	66	96	3
TAP	66	144	3
TAP	66	144	4
TAP	66	192	2
TAP	66	192	5
HLD	66	240	2	96
HLD	66	240	5	96
STR	67	0	4
SCR	67	0	4	96	48	7
STR	67	96	4
SCL	67	96	4	96	48	1
TAP	67	192	4
BRK	67	240	7
BRK	67	288	7
STR	68	0	1
SI_	68	0	1	96	96	6
STR	68	96	6
SI_	68	96	6	96	96	3
STR	68	192	3
SI_	68	192	3	96	96	0
STR	68	288	0
SI_	68	288	0	96	96	4
STR	69	0	4
SI_	69	0	4	96	96	1
STR	69	96	1
SI_	69	96	1	96	96	6
STR	69	192	6
SI_	69	192	6	96	96	3
STR	69	288	3
SI_	69	288	3	96	96	0
STR	70	0	0
SI_	70	0	0	96	96	4
STR	70	96	4
SI_	70	96	4	96	96	1
STR	70	192	1
SI_	70	192	1	96	96	6
STR	70	288	6
SI_	70	288	6	96	96	3
STR	71	0	3
SI_	71	0	3	96	96	0
STR	71	96	0
SI_	71	96	0	96	96	4
STR	71	192	4
SI_	71	192	4	96	48	1
TAP	71	288	1
STR	72	0	0
SSL	72	0	0	96	48	4
STR	72	0	7
SSR	72	0	7	96	48	3
TAP	72	192	2
TAP	72	216	5
TAP	72	240	2
TAP	72	264	5
HLD	72	288	3	48
HLD	72	288	4	48
TAP	73	0	2
TAP	73	0	5
TAP	73	48	4
TAP	73	72	3
TAP	73	96	4
TAP	73	144	1
TAP	73	168	0
TAP	73	216	2
TAP	73	216	7
TAP	73	264	6
TAP	73	288	7
TAP	73	336	0
TAP	73	336	5
BST	74	0	1
SCR	74	0	1	96	192	4
BRK	74	0	6
STR	75	0	6
SCL	75	0	6	96	192	3
TAP	76	0	3
TAP	76	96	3
TAP	76	192	4
TAP	76	288	4
STR	77	0	5
SCL	77	0	5	96	144	2
BRK	77	288	0
HLD	78	0	5	384
TAP	78	192	4
TAP	78	264	3
TAP	78	336	2
HLD	79	0	2	384
TAP	79	192	3
TAP	79	264	4
TAP	79	336	5
HLD	80	0	5	96
TAP	80	96	4
HLD	80	192	2	96
TAP	80	288	3
TAP	81	0	2
TAP	81	0	5
TAP	81	96	3
TAP	81	96	4
TAP	81	144	2
TAP	81	144	5
STR	81	192	3
SI_	81	192	3	96	48	7
STR	81	192	4
SI_	81	192	4	96	48	0
TAP	81	288	3
TAP	81	288	4
BRK	82	0	1
BRK	82	0	6
TAP	82	96	0
TAP	82	120	7
TAP	82	144	0
TAP	82	168	7
TAP	82	192	1
TAP	82	216	6
TAP	82	240	1
TAP	82	264	6
TAP	82	288	2
TAP	82	312	5
TAP	82	336	2
TAP	82	360	5
STR	83	0	3
SI_	83	0	3	96	48	1
STR	83	0	4
SI_	83	0	4	96	48	1
STR	83	96	3
SI_	83	96	3	96	48	6
STR	83	96	4
SI_	83	96	4	96	48	6
STR	83	192	3
SI_	83	192	3	96	48	7
STR	83	192	4
SI_	83	192	4	96	48	0
TAP	83	288	3
TAP	83	288	4
TAP	84	0	0
TAP	84	12	1
TAP	84	24	2
TAP	84	36	3
TAP	84	48	4
TAP	84	60	5
TAP	84	72	6
TAP	84	84	7
TAP	84	96	0
TAP	84	108	1
TAP	84	120	2
TAP	84	132	3
TAP	84	144	4
TAP	84	156	5
TAP	84	168	6
TAP	84	180	7
STR	84	192	0
SF_	84	192	0	96	48	4
BRK	84	288	0
TAP	85	0	2
TAP	85	0	7
TAP	85	48	1
TAP	85	72	0
STR	85	96	1
SI_	85	96	1	96	48	4
TAP	85	120	0
TAP	85	144	1
TAP	85	192	1
STR	85	192	7
SI_	85	192	7	96	48	3
TAP	85	240	6
TAP	85	288	0
TAP	85	288	7
TAP	85	336	1
TAP	86	0	0
TAP	86	0	5
TAP	86	48	6
TAP	86	72	7
STR	86	96	6
SI_	86	96	6	96	48	3
TAP	86	120	7
TAP	86	144	6
STR	86	192	0
SI_	86	192	0	96	48	4
TAP	86	192	6
TAP	86	240	1
TAP	86	288	0
TAP	86	288	7
TAP	86	336	6
TAP	87	0	2
TAP	87	0	7
TAP	87	48	1
TAP	87	72	0
STR	87	96	1
SI_	87	96	1	96	48	4
TAP	87	120	0
TAP	87	144	1
TAP	87	192	1
STR	87	192	7
SI_	87	192	7	96	48	3
TAP	87	240	6
TAP	87	288	0
TAP	87	288	7
TAP	87	336	1
TAP	88	0	0
TAP	88	0	7
TAP	88	48	0
TAP	88	60	1
TAP	88	72	2
TAP	88	84	3
TAP	88	96	4
TAP	88	144	7
TAP	88	156	6
TAP	88	168	5
TAP	88	180	4
TAP	88	192	3
TAP	88	240	0
TAP	88	252	1
TAP	88	264	2
TAP	88	276	3
TAP	88	288	4
TAP	89	0	0
TAP	89	0	5
TAP	89	48	6
TAP	89	72	7
STR	89	96	6
SI_	89	96	6	96	48	3
TAP	89	120	7
TAP	89	144	6
STR	89	192	0
SI_	89	192	0	96	48	4
TAP	89	192	6
TAP	89	240	1
TAP	89	288	0
TAP	89	288	7
TAP	89	336	6
TAP	90	0	2
TAP	90	0	7
TAP	90	48	1
TAP	90	72	0
STR	90	96	1
SI_	90	96	1	96	48	4
TAP	90	120	0
TAP	90	144	1
TAP	90	192	1
STR	90	192	7
SI_	90	192	7	96	48	3
TAP	90	240	6
TAP	90	288	0
TAP	90	288	7
TAP	90	336	1
TAP	91	0	0
TAP	91	0	5
TAP	91	48	6
TAP	91	72	7
STR	91	96	6
SI_	91	96	6	96	48	3
TAP	91	120	7
TAP	91	144	6
STR	91	192	0
SI_	91	192	0	96	48	4
TAP	91	192	6
TAP	91	240	1
TAP	91	288	0
TAP	91	288	7
TAP	91	336	6
TAP	92	0	3
TAP	92	24	4
TAP	92	48	3
TAP	92	96	2
TAP	92	96	5
TAP	92	144	6
TAP	92	168	7
TAP	92	216	0
TAP	92	216	5
TAP	92	264	1
TAP	92	288	0
TAP	92	336	2
TAP	92	336	7
TAP	93	0	1
TAP	93	0	5
TAP	93	48	6
TAP	93	72	7
STR	93	96	5
SCL	93	96	5	96	48	2
TAP	93	120	7
TAP	93	144	6
STR	93	192	0
SI_	93	192	0	96	48	4
TAP	93	192	5
TAP	93	240	1
TAP	93	288	0
TAP	93	288	7
TAP	93	336	5
TAP	94	0	2
TAP	94	0	6
TAP	94	48	1
TAP	94	72	0
STR	94	96	2
SCR	94	96	2	96	48	5
TAP	94	120	0
TAP	94	144	1
TAP	94	192	2
STR	94	192	7
SI_	94	192	7	96	48	3
TAP	94	240	6
TAP	94	288	0
TAP	94	288	7
TAP	94	336	2
TAP	95	0	1
TAP	95	0	5
TAP	95	48	6
TAP	95	72	7
STR	95	96	5
SCL	95	96	5	96	48	2
TAP	95	120	7
TAP	95	144	6
STR	95	192	0
SI_	95	192	0	96	48	4
TAP	95	192	5
TAP	95	240	1
TAP	95	288	0
TAP	95	288	7
TAP	95	336	5
TAP	96	0	1
TAP	96	0	6
HLD	96	48	0	48
TAP	96	48	7
TAP	96	60	6
TAP	96	72	5
TAP	96	84	4
TAP	96	96	3
TAP	96	144	0
HLD	96	144	7	48
TAP	96	156	1
TAP	96	168	2
TAP	96	180	3
TAP	96	192	4
HLD	96	240	0	48
TAP	96	240	7
TAP	96	252	6
TAP	96	264	5
TAP	96	276	4
TAP	96	288	3
TAP	97	0	2
TAP	97	0	6
TAP	97	48	1
TAP	97	72	0
STR	97	96	2
SCR	97	96	2	96	48	5
TAP	97	120	0
TAP	97	144	1
TAP	97	192	2
STR	97	192	7
SI_	97	192	7	96	48	3
TAP	97	240	6
TAP	97	288	0
TAP	97	288	7
TAP	97	336	2
TAP	98	0	1
TAP	98	0	5
TAP	98	48	6
TAP	98	72	7
STR	98	96	5
SCL	98	96	5	96	48	2
TAP	98	120	7
TAP	98	144	6
STR	98	192	0
SI_	98	192	0	96	48	4
TAP	98	192	5
TAP	98	240	1
TAP	98	288	0
TAP	98	288	7
TAP	98	336	5
TAP	99	0	2
TAP	99	0	6
TAP	99	48	1
TAP	99	72	0
STR	99	96	2
SCR	99	96	2	96	48	5
TAP	99	120	0
TAP	99	144	1
TAP	99	192	2
STR	99	192	7
SI_	99	192	7	96	48	3
TAP	99	240	6
TAP	99	288	0
TAP	99	288	7
TAP	99	336	2
TAP	100	0	4
TAP	100	24	3
TAP	100	48	4
TAP	100	96	2
TAP	100	96	5
TAP	100	144	1
TAP	100	168	0
TAP	100	216	2
TAP	100	216	7
TAP	100	264	6
TAP	100	288	7
TAP	100	336	0
TAP	100	336	5
BST	101	0	1
SCR	101	0	1	96	192	4
BRK	101	0	6
STR	102	0	6
SCL	102	0	6	96	192	3
STR	103	0	1
SCR	103	0	1	96	192	4
TAP	104	0	5
TAP	104	96	4
TAP	104	192	3
TAP	104	288	2
STR	105	0	4
SCR	105	0	4	96	192	7
STR	106	0	3
SCL	106	0	3	96	192	0
TAP	107	0	0
TAP	107	24	7
TAP	107	48	0
TAP	107	72	7
TAP	107	96	0
TAP	107	120	7
TAP	107	144	0
TAP	107	168	7
TAP	107	192	1
TAP	107	216	6
TAP	107	240	1
TAP	107	264	6
TAP	107	288	1
TAP	107	312	6
TAP	107	336	1
TAP	107	360	6
TAP	108	0	0
TAP	108	12	1
TAP	108	24	2
TAP	108	36	3
TAP	108	48	4
TAP	108	96	7
TAP	108	108	6
TAP	108	120	5
TAP	108	132	4
TAP	108	144	3
TAP	108	192	0
TAP	108	204	1
TAP	108	216	2
TAP	108	228	3
TAP	108	240	4
TAP	108	252	5
TAP	108	264	6
TAP	108	276	7
TAP	108	288	0
TAP	108	300	1
TAP	108	312	2
TAP	108	324	3
TAP	108	336	4
TAP	108	348	5
TAP	108	360	6
TAP	108	372	7
BST	109	0	0
SCL	109	0	0	96	1056	0
SCR	109	0	0	96	1056	0
BRK	109	0	4

T_REC_TAP	872
T_REC_BRK	21
T_REC_XTP	0
T_REC_HLD	24
T_REC_XHO	0
T_REC_STR	106
T_REC_BST	4
T_REC_XST	0
T_REC_TTP	0
T_REC_THO	0
T_REC_SLD	115
T_REC_ALL	1142
T_NUM_TAP	978
T_NUM_BRK	25
T_NUM_HLD	24
T_NUM_SLD	115
T_NUM_ALL	1142
T_JUDGE_TAP	1003
T_JUDGE_HLD	63
T_JUDGE_SLD	115
T_JUDGE_ALL	1181
TTM_EACHPAIRS	172
TTM_SCR_TAP	489000
TTM_SCR_BRK	65000
TTM_SCR_HLD	24000
TTM_SCR_SLD	172500
TTM_SCR_ALL	750500
TTM_SCR_S	725600
TTM_SCR_SS	748000
TTM_RAT_ACV	10033

