VERSION	0.00.00	1.03.00
FES_MODE	0
BPM_DEF	200.000	200.000	200.000	200.000
MET_DEF	4	4
RESOLUTION	384
CLK_DEF	384
COMPATIBLE_CODE	MA2

BPM	0	0	200.000
MET	0	0	4	4

HLD	2	0	5	96
TAP	2	96	4
HLD	2	192	6	96
TAP	2	288	4
TAP	3	0	6
TAP	3	0	7
TAP	3	96	0
TAP	3	96	7
TAP	3	192	0
TAP	3	240	7
BRK	3	288	1
BRK	3	288	6
HLD	4	0	2	96
TAP	4	96	3
HLD	4	192	1	96
TAP	4	288	3
TAP	5	0	0
TAP	5	0	1
STR	5	96	0
SCR	5	96	0	96	96	3
STR	5	96	7
SUR	5	96	7	96	96	4
HLD	6	0	5	96
TAP	6	96	4
HLD	6	192	6	96
TAP	6	288	4
HLD	7	0	1	96
TAP	7	96	3
HLD	7	192	2	96
TAP	7	288	3
TAP	8	0	2
TAP	8	0	3
STR	8	96	3
SI_	8	96	3	96	72	0
STR	8	96	4
SI_	8	96	4	96	72	7
TAP	9	0	0
TAP	9	0	7
TAP	9	48	0
TAP	9	48	7
TAP	9	96	0
TAP	9	96	7
BRK	9	192	1
BRK	9	192	6
TAP	10	0	2
STR	10	0	3
SCR	10	0	3	96	72	6
TAP	10	96	1
TAP	10	192	0
TAP	10	288	6
TAP	10	288	7
STR	11	0	4
SCL	11	0	4	96	72	1
TAP	11	0	5
TAP	11	96	6
TAP	11	192	7
TAP	11	288	0
TAP	11	288	1
TAP	12	0	2
STR	12	0	3
SCR	12	0	3	96	72	6
TAP	12	96	1
TAP	12	192	0
TAP	12	288	0
TAP	12	288	7
HLD	13	0	1	96
HLD	13	96	3	96
HLD	13	192	5	96
TAP	13	288	7
TAP	14	0	6
STR	14	0	7
SCR	14	0	7	96	72	2
TAP	14	96	5
TAP	14	192	4
TAP	14	288	2
TAP	14	288	3
STR	15	0	0
SCL	15	0	0	96	72	5
TAP	15	0	1
TAP	15	96	2
TAP	15	192	3
TAP	15	288	4
TAP	15	288	5
TAP	16	0	6
STR	16	0	7
SCR	16	0	7	96	72	2
TAP	16	96	5
TAP	16	192	4
TAP	16	288	3
TAP	16	288	4
HLD	17	0	2	96
STR	17	96	0
SI_	17	96	0	96	72	3
SI_	17	96	0	96	72	5
HLD	18	0	1	96
TAP	18	96	3
HLD	18	192	4	96
TAP	18	288	3
HLD	19	0	1	96
TAP	19	96	3
STR	19	192	0
SCR	19	192	0	96	72	3
HLD	20	0	6	96
TAP	20	96	4
HLD	20	192	3	96
TAP	20	288	4
HLD	21	0	6	96
TAP	21	96	4
TAP	21	192	7
BRK	21	288	0
STR	22	0	7
SI_	22	0	7	96	72	4
STR	22	96	2
SUR	22	96	2	96	144	3
TAP	23	0	1
TAP	23	0	3
TAP	23	96	5
TAP	23	96	7
TAP	23	192	1
TAP	23	240	0
TAP	23	288	2
TAP	23	288	7
TAP	24	0	4
TAP	24	0	6
TAP	24	96	0
TAP	24	96	2
TAP	24	192	6
TAP	24	240	7
TAP	24	288	0
TAP	24	288	5
STR	25	0	2
SI_	25	0	2	96	48	0
TAP	25	0	3
TAP	25	96	7
STR	25	192	2
SI_	25	192	2	96	48	0
TAP	25	192	3
TAP	25	288	7
TAP	26	0	3
STR	26	0	6
SI_	26	0	6	96	48	4
STR	26	96	0
SI_	26	96	0	96	48	2
STR	26	192	7
SI_	26	192	7	96	48	3
TAP	27	0	1
TAP	27	0	3
TAP	27	96	5
TAP	27	96	7
TAP	27	192	1
TAP	27	240	0
TAP	27	288	2
TAP	27	288	7
TAP	28	0	3
STR	28	0	5
SI_	28	0	5	96	48	7
TAP	28	96	1
TAP	28	192	3
STR	28	192	5
SI_	28	192	5	96	48	7
TAP	28	288	1
TAP	29	0	0
TAP	29	0	1
STR	29	96	1
SI_	29	96	1	96	72	4
STR	29	96	2
SI_	29	96	2	96	72	6
TAP	30	0	0
TAP	30	0	7
TAP	30	48	0
TAP	30	48	7
TAP	30	96	0
TAP	30	96	7
BRK	30	192	1
BRK	30	192	6
HLD	31	0	6	96
TAP	31	96	4
HLD	31	192	3	96
TAP	31	288	4
TAP	32	0	4
TAP	32	48	4
STR	32	96	4
SI_	32	96	4	96	72	7
BRK	32	288	0
HLD	33	0	1	96
TAP	33	96	3
HLD	33	192	4	96
TAP	33	288	3
TAP	34	0	0
TAP	34	0	7
STR	34	96	1
SCR	34	96	1	96	144	7
TAP	34	96	6
HLD	35	0	5	96
TAP	35	96	4
HLD	35	192	2	96
TAP	35	288	4
HLD	36	0	5	96
TAP	36	0	7
HLD	36	96	1	96
HLD	36	192	4	96
HLD	36	288	3	96
HLD	37	0	4	96
HLD	37	96	5	96
HLD	37	192	6	96
HLD	37	288	7	96
STR	38	0	0
SCR	38	0	0	96	192	6
SUR	38	0	0	96	192	7
HLD	39	0	0	384
HLD	40	0	7	384
HLD	41	0	6	384
HLD	42	0	5	384
STR	43	0	4
SLL	43	0	4	96	240	0
STR	44	0	7
SLL	44	0	7	96	240	3
STR	45	0	2
SI_	45	0	2	96	72	5
STR	45	192	6
SI_	45	192	6	96	72	1
TAP	46	0	2
TAP	46	96	3
TAP	46	96	4
TAP	46	144	3
TAP	46	144	4
TAP	46	192	2
TAP	46	192	5
BST	46	288	0
SCR	46	288	0	96	120	3
BST	46	288	7
SCL	46	288	7	96	120	4
TAP	47	288	1
TAP	47	288	6
STR	48	0	0
SI_	48	0	0	96	48	6
TAP	48	0	1
STR	48	96	1
SI_	48	96	1	96	48	3
STR	48	192	0
SI_	48	192	0	96	48	5
STR	48	288	1
SI_	48	288	1	96	48	4
STR	49	0	7
SI_	49	0	7	96	48	5
STR	49	96	0
SI_	49	96	0	96	48	2
STR	49	192	7
SI_	49	192	7	96	48	4
STR	49	288	0
SI_	49	288	0	96	48	3
STR	50	0	6
SI_	50	0	6	96	48	4
STR	50	96	7
SI_	50	96	7	96	48	1
STR	50	192	6
SI_	50	192	6	96	48	3
STR	50	288	7
SI_	50	288	7	96	48	2
STR	51	0	6
SCL	51	0	6	96	72	3
TAP	51	96	2
TAP	51	192	1
TAP	51	288	0
TAP	51	288	2
TAP	52	0	6
STR	52	0	7
SI_	52	0	7	96	48	1
STR	52	96	6
SI_	52	96	6	96	48	4
STR	52	192	7
SI_	52	192	7	96	48	2
STR	52	288	6
SI_	52	288	6	96	48	3
STR	53	0	0
SI_	53	0	0	96	48	2
STR	53	96	7
SI_	53	96	7	96	48	5
STR	53	192	0
SI_	53	192	0	96	48	3
STR	53	288	7
SI_	53	288	7	96	48	4
STR	54	0	1
SI_	54	0	1	96	48	3
STR	54	96	0
SI_	54	96	0	96	48	6
STR	54	192	1
SI_	54	192	1	96	48	4
STR	54	288	0
SI_	54	288	0	96	48	5
STR	55	0	1
SCR	55	0	1	96	72	4
TAP	55	96	5
TAP	55	192	6
TAP	55	192	7
TAP	55	288	0
TAP	55	288	2
TAP	56	0	2
STR	56	0	3
SI_	56	0	3	96	48	5
STR	56	96	2
SI_	56	96	2	96	48	0
STR	56	192	3
SI_	56	192	3	96	48	6
STR	56	288	2
SI_	56	288	2	96	48	7
STR	57	0	4
SI_	57	0	4	96	48	6
STR	57	96	3
SI_	57	96	3	96	48	1
STR	57	192	4
SI_	57	192	4	96	48	7
STR	57	288	3
SI_	57	288	3	96	48	0
STR	58	0	5
SI_	58	0	5	96	48	7
STR	58	96	4
SI_	58	96	4	96	48	2
STR	58	192	5
SI_	58	192	5	96	48	0
STR	58	288	4
SI_	58	288	4	96	48	1
STR	59	0	5
SCR	59	0	5	96	72	0
TAP	59	96	1
TAP	59	192	2
TAP	59	240	2
TAP	59	288	1
TAP	59	288	3
STR	60	0	4
SI_	60	0	4	96	48	2
TAP	60	0	5
STR	60	96	5
SI_	60	96	5	96	48	7
STR	60	192	4
SI_	60	192	4	96	48	1
STR	60	288	5
SI_	60	288	5	96	48	0
STR	61	0	3
SI_	61	0	3	96	48	1
STR	61	96	4
SI_	61	96	4	96	48	6
STR	61	192	3
SI_	61	192	3	96	48	0
STR	61	288	4
SI_	61	288	4	96	48	7
STR	62	0	2
SI_	62	0	2	96	48	0
STR	62	96	3
SI_	62	96	3	96	48	5
STR	62	192	2
SI_	62	192	2	96	48	7
TAP	62	288	3
TAP	62	336	3
STR	63	48	1
SLR	63	48	1	96	144	5
STR	63	48	5
SLR	63	48	5	96	144	1
HLD	64	0	5	96
HLD	64	96	3	96
HLD	64	192	4	96
STR	64	288	2
SI_	64	288	2	96	48	7
STR	65	0	3
SI_	65	0	3	96	48	6
STR	65	96	2
SI_	65	96	2	96	48	7
TAP	65	192	3
BRK	65	288	6
TAP	66	0	2
TAP	66	48	2
TAP	66	96	4
TAP	66	144	4
TAP	66	192	3
TAP	66	240	3
STR	66	288	5
SI_	66	288	5	96	48	0
STR	67	0	4
SI_	67	0	4	96	48	1
STR	67	96	5
SI_	67	96	5	96	48	0
TAP	67	192	4
BRK	67	240	3
BRK	67	288	3
TAP	68	0	2
TAP	68	96	1
TAP	68	96	3
TAP	68	192	2
TAP	68	288	2
TAP	68	288	3
TAP	69	0	5
TAP	69	96	4
TAP	69	96	6
TAP	69	192	5
TAP	69	288	4
TAP	69	288	5
TAP	70	0	2
TAP	70	96	2
TAP	70	96	3
TAP	70	192	2
TAP	70	288	3
TAP	70	288	4
TAP	71	0	5
TAP	71	96	4
TAP	71	96	5
TAP	71	192	5
TAP	71	288	3
STR	71	288	4
SI_	71	288	4	96	72	1
SI_	71	288	4	96	72	7
TAP	72	192	0
TAP	72	240	7
TAP	72	288	1
TAP	72	288	6
TAP	73	0	2
TAP	73	48	4
TAP	73	96	3
TAP	73	144	5
TAP	73	192	4
TAP	73	288	1
TAP	73	288	6
HLD	74	0	7	192
HLD	74	192	6	192
HLD	75	0	5	192
HLD	75	192	4	192
HLD	76	0	3	192
HLD	76	192	2	192
HLD	77	0	1	192
TAP	77	192	0
BRK	77	288	0
STR	78	0	1
SI_	78	0	1	96	144	5
SLR	78	0	1	96	144	5
STR	79	0	6
SXR	79	0	6	96	192	6
STR	79	0	7
SXL	79	0	7	96	192	7
TAP	80	0	0
STR	80	0	1
SI_	80	0	1	96	48	4
STR	80	192	6
SI_	80	192	6	96	48	3
TAP	80	192	7
TAP	81	0	0
TAP	81	96	1
TAP	81	96	6
TAP	81	144	2
TAP	81	144	5
TAP	81	192	3
TAP	81	192	4
TAP	81	288	7
BST	82	0	0
SCR	82	0	0	96	96	3
BST	82	0	4
SCR	82	0	4	96	96	7
STR	83	0	1
SCR	83	0	1	96	48	4
STR	83	0	5
SCR	83	0	5	96	48	0
STR	83	192	1
SCR	83	192	1	96	48	4
STR	83	192	5
SCR	83	192	5	96	48	0
STR	84	0	1
SCR	84	0	1	96	48	4
STR	84	0	5
SCR	84	0	5	96	48	0
TAP	84	192	1
TAP	84	192	5
BRK	84	288	3
BRK	84	288	7
HLD	85	0	2	72
STR	85	72	3
SI_	85	72	3	96	72	7
STR	85	144	7
SCL	85	144	7	96	72	4
SCR	85	144	7	96	72	2
TAP	85	192	7
HLD	86	0	5	72
STR	86	72	4
SI_	86	72	4	96	72	0
STR	86	144	0
SCL	86	144	0	96	72	5
SCR	86	144	0	96	72	3
TAP	86	192	0
HLD	87	0	2	72
STR	87	72	3
SI_	87	72	3	96	72	7
STR	87	144	7
SCL	87	144	7	96	72	4
SCR	87	144	7	96	72	2
TAP	87	192	7
TAP	88	0	5
STR	88	96	2
SI_	88	96	2	96	48	7
STR	88	96	6
SI_	88	96	6	96	48	3
BRK	88	288	1
BRK	88	288	5
HLD	89	0	2	72
STR	89	72	3
SI_	89	72	3	96	72	7
STR	89	144	7
SXL	89	144	7	96	72	1
SXR	89	144	7	96	72	5
TAP	89	192	7
HLD	90	0	5	72
STR	90	72	4
SI_	90	72	4	96	72	0
STR	90	144	0
SXL	90	144	0	96	72	2
SXR	90	144	0	96	72	6
TAP	90	192	0
HLD	91	0	2	72
STR	91	72	3
SI_	91	72	3	96	72	7
STR	91	144	7
SXL	91	144	7	96	72	1
SXR	91	144	7	96	72	5
TAP	91	192	7
STR	92	0	5
SCR	92	0	5	96	48	0
STR	92	96	1
SCR	92	96	1	96	48	4
STR	92	192	5
SCR	92	192	5	96	48	0
TAP	92	288	1
HLD	93	0	2	72
STR	93	72	3
SCR	93	72	3	96	72	7
STR	93	144	7
SCR	93	144	7	96	72	2
SUR	93	144	7	96	72	3
TAP	93	192	7
HLD	94	0	5	72
STR	94	72	4
SCL	94	72	4	96	72	0
STR	94	144	0
SCL	94	144	0	96	72	5
SUL	94	144	0	96	72	4
TAP	94	192	0
HLD	95	0	2	72
STR	95	72	3
SCR	95	72	3	96	72	7
STR	95	144	7
SCR	95	144	7	96	72	2
SUR	95	144	7	96	72	3
TAP	95	192	7
TAP	96	0	5
STR	96	96	2
SI_	96	96	2	96	48	7
STR	96	96	6
SI_	96	96	6	96	48	3
BRK	96	288	1
BRK	96	288	5
HLD	97	0	2	72
STR	97	72	3
SCR	97	72	3	96	72	7
STR	97	144	7
SUL	97	144	7	96	72	1
SV_	97	144	7	96	72	1
TAP	97	192	7
HLD	98	0	5	72
STR	98	72	4
SCL	98	72	4	96	72	0
STR	98	144	0
SUR	98	144	0	96	72	6
SV_	98	144	0	96	72	6
TAP	98	192	0
HLD	99	0	2	72
STR	99	72	3
SCR	99	72	3	96	72	7
STR	99	144	7
SUL	99	144	7	96	72	1
SV_	99	144	7	96	72	1
TAP	99	192	7
STR	100	0	6
SI_	100	0	6	96	48	2
TAP	100	48	6
STR	100	96	7
SI_	100	96	7	96	48	3
TAP	100	144	7
STR	100	192	0
SI_	100	192	0	96	48	4
TAP	100	240	0
STR	100	288	1
SI_	100	288	1	96	48	5
TAP	100	336	1
STR	101	0	6
SCL	101	0	6	96	240	3
STR	102	0	2
SCL	102	0	2	96	240	7
STR	103	0	6
SCL	103	0	6	96	240	3
TAP	104	0	2
TAP	104	96	1
TAP	104	192	0
TAP	104	288	7
STR	105	0	6
SCR	105	0	6	96	240	1
STR	106	0	2
SCR	106	0	2	96	240	5
STR	107	0	6
SXL	107	0	6	96	480	2
SXR	107	0	6	96	480	2
BST	109	0	0
SCR	109	0	0	96	1008	7
BRK	109	0	7

T_REC_TAP	222
T_REC_BRK	19
T_REC_XTP	0
T_REC_HLD	58
T_REC_XHO	0
T_REC_STR	141
T_REC_BST	5
T_REC_XST	0
T_REC_TTP	0
T_REC_THO	0
T_REC_SLD	163
T_REC_ALL	608
T_NUM_TAP	363
T_NUM_BRK	24
T_NUM_HLD	58
T_NUM_SLD	163
T_NUM_ALL	608
T_JUDGE_TAP	387
T_JUDGE_HLD	154
T_JUDGE_SLD	163
T_JUDGE_ALL	704
TTM_EACHPAIRS	87
TTM_SCR_TAP	181500
TTM_SCR_BRK	62400
TTM_SCR_HLD	58000
TTM_SCR_SLD	244500
TTM_SCR_ALL	546400
TTM_SCR_S	527700
TTM_SCR_SS	544000
TTM_RAT_ACV	10044

