VERSION	0.00.00	1.03.00
FES_MODE	0
BPM_DEF	200.000	200.000	200.000	200.000
MET_DEF	4	4
RESOLUTION	384
CLK_DEF	384
COMPATIBLE_CODE	MA2

BPM	0	0	200.000
MET	0	0	4	4

TAP	2	0	2
TAP	2	96	3
TAP	2	192	4
HLD	3	0	5	192
TAP	3	192	4
TAP	3	288	3
TAP	3	288	6
TAP	4	0	5
TAP	4	96	4
TAP	4	192	3
HLD	5	0	2	96
TAP	5	96	3
TAP	5	192	2
TAP	5	192	3
TAP	6	0	4
TAP	6	96	3
TAP	6	192	2
TAP	6	192	5
TAP	6	288	2
TAP	6	288	5
TAP	7	0	3
TAP	7	96	4
TAP	7	192	2
TAP	7	192	5
HLD	8	0	1	192
HLD	8	0	6	192
TAP	9	0	0
TAP	9	48	0
TAP	9	96	7
BRK	9	192	1
BRK	9	192	6
TAP	10	0	2
TAP	10	96	2
TAP	10	96	3
TAP	10	192	5
TAP	10	288	4
TAP	10	288	5
TAP	11	0	3
TAP	11	0	4
TAP	11	96	3
TAP	11	96	4
TAP	11	192	2
TAP	11	192	5
TAP	12	0	1
TAP	12	96	0
TAP	12	96	1
TAP	12	192	6
TAP	12	288	6
TAP	12	288	7
TAP	13	0	0
TAP	13	0	7
TAP	13	96	0
TAP	13	96	7
TAP	13	192	1
TAP	13	192	6
TAP	14	0	5
TAP	14	96	4
TAP	14	96	5
TAP	14	192	2
TAP	14	288	2
TAP	14	288	3
TAP	15	0	3
TAP	15	0	4
TAP	15	96	3
TAP	15	96	4
TAP	15	192	2
TAP	15	192	5
TAP	16	0	5
TAP	16	96	6
TAP	16	192	7
TAP	16	288	0
TAP	16	288	1
TAP	17	0	2
TAP	17	96	1
TAP	17	192	0
TAP	17	192	7
HLD	18	0	6	192
TAP	18	192	7
HLD	19	0	1	192
TAP	19	192	0
HLD	20	0	2	192
TAP	20	192	3
TAP	21	0	5
TAP	21	96	4
TAP	21	192	4
TAP	21	192	5
STR	21	288	4
SI_	21	288	4	96	240	1
STR	21	288	5
SI_	21	288	5	96	240	0
HLD	23	0	2	96
TAP	23	96	3
TAP	23	192	1
TAP	23	192	4
HLD	24	0	5	96
TAP	24	96	4
TAP	24	192	3
TAP	24	192	6
HLD	25	0	2	96
TAP	25	96	3
TAP	25	192	1
TAP	25	192	4
TAP	26	0	2
TAP	26	96	3
TAP	26	192	4
TAP	26	288	5
HLD	27	0	6	96
TAP	27	96	7
TAP	27	192	0
TAP	27	192	5
HLD	28	0	1	96
TAP	28	96	0
TAP	28	192	2
TAP	28	192	7
HLD	29	0	1	192
HLD	29	0	6	192
TAP	30	0	7
TAP	30	48	7
TAP	30	96	0
BRK	30	192	1
BRK	30	192	6
TAP	31	0	1
TAP	31	96	1
TAP	31	192	2
TAP	31	288	2
HLD	32	0	2	192
HLD	32	0	3	192
TAP	32	288	1
TAP	32	288	4
TAP	33	0	5
TAP	33	96	5
TAP	33	192	6
TAP	33	288	6
TAP	34	0	7
TAP	34	96	0
TAP	34	192	1
TAP	34	192	6
TAP	35	0	5
TAP	35	96	5
TAP	35	192	4
TAP	35	288	4
HLD	36	0	2	96
HLD	36	0	3	96
HLD	36	192	4	96
HLD	36	192	5	96
TAP	37	0	2
TAP	37	96	2
TAP	37	192	3
STR	37	288	3
SCR	37	288	3	96	288	7
HLD	39	0	0	384
HLD	40	0	1	384
HLD	41	0	2	384
TAP	42	0	3
TAP	42	192	3
TAP	42	192	4
HLD	43	0	4	384
HLD	44	0	5	384
HLD	45	0	6	384
TAP	46	0	7
TAP	46	192	0
TAP	46	192	7
STR	47	0	0
SI_	47	0	0	96	192	3
STR	47	0	7
SI_	47	0	7	96	192	4
STR	48	0	6
SI_	48	0	6	96	192	3
STR	49	0	1
SI_	49	0	1	96	192	4
STR	50	0	7
SI_	50	0	7	96	192	3
TAP	51	0	2
TAP	51	96	2
TAP	51	192	1
TAP	51	192	3
STR	52	0	2
SI_	52	0	2	96	192	7
STR	53	0	5
SI_	53	0	5	96	192	0
STR	54	0	3
SI_	54	0	3	96	192	7
TAP	55	0	6
TAP	55	96	6
TAP	55	192	5
TAP	55	192	7
STR	56	0	6
SCL	56	0	6	96	192	3
STR	57	0	1
SCR	57	0	1	96	192	4
STR	58	0	7
SCL	58	0	7	96	192	4
TAP	59	0	3
TAP	59	96	3
TAP	59	192	2
TAP	59	192	4
STR	60	0	4
SI_	60	0	4	96	192	1
STR	60	0	5
SI_	60	0	5	96	192	0
STR	61	0	2
SI_	61	0	2	96	192	7
STR	61	0	3
SI_	61	0	3	96	192	6
STR	62	0	3
SXR	62	0	3	96	480	0
STR	62	0	4
SXL	62	0	4	96	480	7
HLD	64	0	1	192
HLD	64	0	6	192
TAP	65	0	0
TAP	65	0	7
TAP	65	96	0
TAP	65	96	7
TAP	65	192	0
TAP	65	192	7
TAP	65	288	1
TAP	65	288	6
TAP	66	0	2
TAP	66	96	2
TAP	66	192	5
TAP	66	288	5
TAP	67	0	3
TAP	67	0	4
TAP	67	96	3
TAP	67	96	4
TAP	67	192	3
TAP	67	192	4
TAP	67	288	2
TAP	67	288	5
HLD	68	0	2	192
HLD	68	0	3	192
HLD	69	0	4	192
HLD	69	0	5	192
HLD	70	0	1	192
HLD	70	0	3	192
HLD	71	0	4	192
HLD	71	0	6	192
STR	72	0	0
SCR	72	0	0	96	192	3
STR	72	0	7
SCL	72	0	7	96	192	4
TAP	73	0	2
TAP	73	0	5
TAP	73	96	1
TAP	73	96	6
BRK	73	192	0
BRK	73	192	7
HLD	74	0	7	384
HLD	75	0	6	384
HLD	76	0	5	384
HLD	77	0	4	192
TAP	77	192	5
TAP	77	288	4
TAP	77	288	5
HLD	78	0	3	384
TAP	78	0	4
HLD	79	0	2	384
HLD	80	0	1	384
TAP	81	0	0
TAP	81	192	1
TAP	81	192	6
STR	81	288	1
SCR	81	288	1	96	288	6
TAP	81	288	6
TAP	83	0	0
TAP	83	0	7
TAP	83	96	0
TAP	83	96	7
TAP	83	192	1
TAP	83	192	6
TAP	83	288	1
TAP	83	288	6
TAP	84	0	2
TAP	84	0	5
TAP	84	96	2
TAP	84	96	5
TAP	84	192	3
TAP	84	192	4
BRK	84	288	1
BRK	84	288	6
TAP	85	0	2
TAP	85	96	1
TAP	85	96	3
TAP	85	192	5
TAP	85	288	4
TAP	85	288	6
TAP	86	0	3
TAP	86	0	5
TAP	86	96	2
TAP	86	96	6
TAP	86	192	1
TAP	86	192	7
TAP	87	0	5
TAP	87	96	4
TAP	87	96	6
TAP	87	192	2
TAP	87	288	1
TAP	87	288	3
TAP	88	0	2
TAP	88	0	4
TAP	88	96	1
TAP	88	96	5
TAP	88	192	0
TAP	88	192	6
TAP	89	0	5
TAP	89	96	4
TAP	89	96	6
TAP	89	192	2
TAP	89	288	1
TAP	89	288	3
TAP	90	0	2
TAP	90	0	4
TAP	90	96	1
TAP	90	96	5
TAP	90	192	0
TAP	90	192	6
TAP	91	0	4
TAP	91	0	5
TAP	91	96	3
TAP	91	96	6
TAP	91	192	2
TAP	91	192	7
TAP	91	288	0
TAP	91	288	1
TAP	92	0	2
TAP	92	0	3
TAP	92	96	1
TAP	92	96	4
TAP	92	192	0
TAP	92	192	5
BRK	92	288	6
BRK	92	288	7
TAP	93	0	0
TAP	93	0	7
TAP	93	96	0
TAP	93	96	1
TAP	93	192	0
TAP	93	192	7
TAP	93	288	6
TAP	93	288	7
TAP	94	0	4
TAP	94	0	5
TAP	94	96	2
TAP	94	96	3
TAP	94	192	1
TAP	94	192	4
TAP	95	0	3
TAP	95	0	4
TAP	95	96	4
TAP	95	96	5
TAP	95	192	3
TAP	95	192	4
TAP	95	288	2
TAP	95	288	3
TAP	96	0	0
TAP	96	0	1
TAP	96	96	6
TAP	96	96	7
TAP	96	192	0
TAP	96	192	5
TAP	97	0	0
TAP	97	0	7
TAP	97	96	6
TAP	97	96	7
TAP	97	192	0
TAP	97	192	7
TAP	97	288	0
TAP	97	288	1
TAP	98	0	0
TAP	98	0	7
TAP	98	96	5
TAP	98	96	7
TAP	98	192	0
TAP	98	192	7
TAP	98	288	0
TAP	98	288	2
TAP	99	0	1
TAP	99	48	1
TAP	99	96	1
TAP	99	192	6
TAP	99	240	6
TAP	99	288	6
TAP	100	0	0
TAP	100	48	0
TAP	100	96	0
TAP	100	192	0
TAP	100	192	7
TAP	100	240	0
TAP	100	240	7
TAP	100	288	0
TAP	100	288	7
STR	101	0	0
SXL	101	0	0	96	480	3
TAP	101	0	7
STR	103	0	4
SXL	103	0	4	96	480	7
HLD	105	0	1	192
HLD	105	0	6	192
HLD	106	0	2	192
HLD	106	0	5	192
STR	107	0	3
SXR	107	0	3	96	480	0
STR	107	0	4
SXL	107	0	4	96	480	7
BRK	109	0	1
BRK	109	0	6

T_REC_TAP	294
T_REC_BRK	12
T_REC_XTP	0
T_REC_HLD	47
T_REC_XHO	0
T_REC_STR	27
T_REC_BST	0
T_REC_XST	0
T_REC_TTP	0
T_REC_THO	0
T_REC_SLD	27
T_REC_ALL	407
T_NUM_TAP	321
T_NUM_BRK	12
T_NUM_HLD	47
T_NUM_SLD	27
T_NUM_ALL	407
T_JUDGE_TAP	333
T_JUDGE_HLD	216
T_JUDGE_SLD	27
T_JUDGE_ALL	576
TTM_EACHPAIRS	129
TTM_SCR_TAP	160500
TTM_SCR_BRK	31200
TTM_SCR_HLD	47000
TTM_SCR_SLD	40500
TTM_SCR_ALL	279200
TTM_SCR_S	269700
TTM_SCR_SS	278000
TTM_RAT_ACV	10043

