VERSION	0.00.00	1.03.00
FES_MODE	0
BPM_DEF	200.000	200.000	200.000	200.000
MET_DEF	4	4
RESOLUTION	384
CLK_DEF	384
COMPATIBLE_CODE	MA2

BPM	0	0	200.000
MET	0	0	4	4

TAP	2	0	0
TAP	2	192	0
TAP	3	0	0
TAP	3	96	0
TAP	3	192	0
BRK	3	288	0
TAP	4	0	7
TAP	4	192	7
TAP	5	0	7
TAP	5	96	7
TAP	5	192	7
TAP	5	288	0
TAP	5	288	7
TAP	6	0	0
TAP	6	192	0
TAP	7	0	0
TAP	7	0	7
TAP	7	96	0
TAP	7	96	7
TAP	7	192	0
TAP	7	192	7
TAP	7	288	0
TAP	7	288	7
STR	8	0	0
SI_	8	0	0	96	288	3
STR	8	0	7
SI_	8	0	7	96	288	4
TAP	10	0	3
TAP	10	0	4
TAP	10	192	3
TAP	10	192	4
TAP	11	0	3
TAP	11	96	3
TAP	11	192	2
TAP	11	288	2
TAP	12	0	0
TAP	12	0	1
TAP	12	192	0
TAP	12	192	1
TAP	13	0	7
TAP	13	96	7
TAP	13	192	6
TAP	13	288	6
TAP	14	0	4
TAP	14	0	5
TAP	14	192	4
TAP	14	192	5
TAP	15	0	3
TAP	15	96	3
TAP	15	192	2
TAP	15	288	2
TAP	16	0	0
TAP	16	0	1
TAP	16	192	0
TAP	16	192	1
TAP	17	0	0
TAP	17	96	0
TAP	17	192	7
TAP	17	288	7
STR	18	0	6
SI_	18	0	6	96	288	1
TAP	19	288	2
STR	20	0	2
SI_	20	0	2	96	288	5
BRK	21	288	7
HLD	22	0	0	288
HLD	22	0	7	288
TAP	23	0	6
TAP	23	0	7
TAP	23	192	6
TAP	23	192	7
TAP	24	0	6
TAP	24	96	6
TAP	24	192	7
TAP	24	288	7
TAP	25	0	0
TAP	25	0	1
TAP	25	192	0
TAP	25	192	1
TAP	26	0	2
TAP	26	96	2
TAP	26	192	3
TAP	26	288	3
TAP	27	0	4
TAP	27	0	5
TAP	27	192	4
TAP	27	192	5
TAP	28	0	6
TAP	28	96	6
TAP	28	192	7
TAP	28	288	7
HLD	29	0	0	288
HLD	29	0	7	288
TAP	30	0	0
TAP	30	0	7
TAP	30	96	0
TAP	30	96	7
TAP	30	192	1
TAP	30	192	6
TAP	31	0	2
TAP	31	0	3
TAP	31	192	2
TAP	31	192	3
TAP	32	0	4
TAP	32	96	3
TAP	32	192	4
BRK	32	288	3
TAP	33	0	4
TAP	33	0	5
TAP	33	192	4
TAP	33	192	5
HLD	34	0	3	192
HLD	34	0	6	192
TAP	35	0	6
TAP	35	0	7
TAP	35	192	6
TAP	35	192	7
TAP	36	0	0
TAP	36	96	0
TAP	36	192	1
TAP	36	288	1
STR	37	0	2
SI_	37	0	2	96	288	7
TAP	39	0	7
TAP	40	0	6
TAP	41	0	5
TAP	42	0	4
TAP	43	0	2
TAP	43	0	3
TAP	43	192	2
TAP	43	192	3
TAP	44	0	2
TAP	44	0	3
TAP	44	192	2
TAP	44	192	3
TAP	45	0	0
TAP	45	0	1
TAP	45	192	0
TAP	45	192	1
TAP	46	0	0
TAP	46	0	1
TAP	46	96	0
TAP	46	96	1
TAP	46	192	0
TAP	46	192	1
BRK	46	288	0
BRK	46	288	1
STR	48	0	0
SI_	48	0	0	96	288	5
STR	48	0	1
SI_	48	0	1	96	288	4
STR	50	0	6
SI_	50	0	6	96	288	3
STR	50	0	7
SI_	50	0	7	96	288	2
STR	52	0	4
SI_	52	0	4	96	288	1
STR	52	0	5
SI_	52	0	5	96	288	0
STR	54	0	2
SI_	54	0	2	96	288	7
STR	54	0	3
SI_	54	0	3	96	288	6
TAP	56	0	0
TAP	56	192	0
TAP	57	0	0
TAP	57	192	0
TAP	58	0	1
TAP	58	192	1
TAP	59	0	1
TAP	59	192	1
TAP	60	0	2
TAP	60	96	2
TAP	60	192	2
TAP	61	0	3
TAP	61	96	3
TAP	61	192	3
STR	62	0	4
SI_	62	0	4	96	288	7
HLD	64	0	7	96
HLD	64	192	0	96
TAP	65	0	7
TAP	65	96	7
TAP	65	192	7
BRK	65	288	7
TAP	66	0	0
TAP	66	96	0
TAP	66	192	1
TAP	66	288	1
TAP	67	0	0
TAP	67	96	0
TAP	67	192	0
TAP	67	288	0
TAP	67	288	7
TAP	68	0	7
TAP	68	96	7
TAP	68	192	6
TAP	68	288	6
TAP	69	0	5
TAP	69	96	5
TAP	69	192	4
TAP	69	288	4
TAP	70	0	3
TAP	70	96	3
TAP	70	192	2
TAP	70	288	2
TAP	71	0	1
TAP	71	96	1
TAP	71	192	0
TAP	71	288	0
TAP	72	0	0
TAP	72	0	7
TAP	73	0	7
TAP	73	96	0
TAP	73	192	7
BRK	73	288	0
BRK	73	288	7
STR	74	0	7
SCL	74	0	7	96	288	4
STR	76	0	3
SCL	76	0	3	96	288	0
BRK	77	288	7
TAP	78	0	0
TAP	78	0	1
TAP	78	192	2
TAP	78	192	3
TAP	79	0	4
TAP	79	0	5
TAP	79	192	6
TAP	79	192	7
TAP	80	0	7
TAP	80	96	6
TAP	80	192	5
TAP	80	288	4
TAP	81	0	3
TAP	81	96	2
TAP	81	192	1
TAP	81	288	0
BRK	82	0	0
BRK	82	0	7
STR	83	0	0
SCR	83	0	0	96	288	3
STR	83	0	7
SCL	83	0	7	96	288	4
TAP	85	0	2
TAP	85	96	3
TAP	85	192	2
TAP	85	288	2
TAP	86	0	5
TAP	86	96	4
TAP	86	192	5
TAP	86	288	5
TAP	87	0	3
TAP	87	96	4
TAP	87	192	3
TAP	87	288	3
TAP	88	0	2
TAP	88	0	3
TAP	88	96	3
TAP	88	96	4
TAP	88	192	4
TAP	88	192	5
TAP	89	0	5
TAP	89	96	4
TAP	89	192	5
TAP	89	288	5
TAP	90	0	2
TAP	90	96	3
TAP	90	192	2
TAP	90	288	2
TAP	91	0	4
TAP	91	96	3
TAP	91	192	4
TAP	91	288	4
TAP	92	0	4
TAP	92	0	5
TAP	92	96	3
TAP	92	96	4
TAP	92	192	2
TAP	92	192	3
TAP	93	0	1
TAP	93	96	0
TAP	93	192	1
TAP	93	288	1
TAP	94	0	6
TAP	94	96	7
TAP	94	192	6
TAP	94	288	6
TAP	95	0	0
TAP	95	96	7
TAP	95	192	0
TAP	95	288	0
TAP	96	0	0
TAP	96	0	1
TAP	96	96	0
TAP	96	96	7
TAP	96	192	6
TAP	96	192	7
TAP	97	0	6
TAP	97	96	7
TAP	97	192	6
TAP	97	288	6
TAP	98	0	1
TAP	98	96	0
TAP	98	192	1
TAP	98	288	1
TAP	99	0	7
TAP	99	96	0
TAP	99	192	7
TAP	99	288	7
TAP	100	0	0
TAP	100	0	7
TAP	100	96	1
TAP	100	96	6
TAP	100	192	2
TAP	100	192	5
TAP	100	288	3
TAP	100	288	4
STR	101	0	3
SI_	101	0	3	96	672	0
STR	105	0	4
SI_	105	0	4	96	672	7
BRK	109	0	0

T_REC_TAP	263
T_REC_BRK	12
T_REC_XTP	0
T_REC_HLD	8
T_REC_XHO	0
T_REC_STR	20
T_REC_BST	0
T_REC_XST	0
T_REC_TTP	0
T_REC_THO	0
T_REC_SLD	20
T_REC_ALL	323
T_NUM_TAP	283
T_NUM_BRK	12
T_NUM_HLD	8
T_NUM_SLD	20
T_NUM_ALL	323
T_JUDGE_TAP	295
T_JUDGE_HLD	36
T_JUDGE_SLD	20
T_JUDGE_ALL	351
TTM_EACHPAIRS	68
TTM_SCR_TAP	141500
TTM_SCR_BRK	31200
TTM_SCR_HLD	8000
TTM_SCR_SLD	30000
TTM_SCR_ALL	210700
TTM_SCR_S	203250
TTM_SCR_SS	209500
TTM_RAT_ACV	10057

