VERSION	0.00.00	1.03.00
FES_MODE	0
BPM_DEF	132.000	132.000	132.000	132.000
MET_DEF	4	4
RESOLUTION	384
CLK_DEF	384
COMPATIBLE_CODE	MA2

BPM	0	0	132.000
MET	0	0	4	4
MET	37	0	4	2
MET	37	192	4	4

TAP	1	0	2
TAP	1	0	4
TAP	1	48	3
TAP	1	96	3
TAP	1	96	5
TAP	1	144	4
TAP	1	192	2
TAP	1	192	4
TAP	1	240	3
TAP	1	288	3
TAP	1	288	5
TAP	1	336	4
TAP	2	0	1
TAP	2	0	4
TAP	2	48	2
TAP	2	96	3
TAP	2	96	6
TAP	2	144	5
TAP	2	192	1
TAP	2	192	4
TAP	2	240	2
TAP	2	288	3
TAP	2	288	6
TAP	2	336	5
TAP	3	0	1
STR	3	0	4
SI_	3	0	4	96	48	0
STR	3	96	3
SI_	3	96	3	96	48	7
STR	3	192	5
SI_	3	192	5	96	48	0
TAP	3	288	3
BRK	4	0	1
BRK	4	0	6
BRK	4	32	1
BRK	4	32	6
TAP	4	96	2
TAP	4	96	5
TAP	4	144	3
TAP	4	176	3
TAP	4	192	4
TAP	4	240	1
TAP	4	240	6
TAP	4	288	5
TAP	4	320	5
TAP	4	336	4
TAP	4	368	4
TAP	5	0	3
TAP	5	48	0
TAP	5	48	1
TAP	5	96	4
TAP	5	144	6
TAP	5	144	7
TAP	5	192	3
TAP	5	240	0
TAP	5	240	1
TAP	5	288	4
TAP	5	336	6
TAP	5	336	7
TAP	6	0	1
TAP	6	0	3
TAP	6	48	2
TAP	6	48	4
TAP	6	96	3
TAP	6	96	5
TAP	6	144	6
TAP	6	176	6
TAP	6	192	5
TAP	6	224	5
TAP	6	240	4
TAP	6	272	4
HLD	6	288	3	48
TAP	6	336	2
TAP	7	0	1
HLD	7	0	5	48
TAP	7	48	4
HLD	7	96	2	48
TAP	7	96	6
TAP	7	144	3
TAP	7	192	0
HLD	7	192	5	48
TAP	7	240	4
HLD	7	288	2	48
TAP	7	288	7
TAP	7	336	3
TAP	8	0	1
TAP	8	32	1
TAP	8	48	0
TAP	8	80	0
BRK	8	96	1
TAP	8	144	6
TAP	8	176	6
TAP	8	192	7
TAP	8	224	7
BRK	8	240	6
TAP	8	288	0
TAP	8	288	7
TAP	8	336	1
TAP	8	336	6
TAP	9	0	4
TAP	9	48	6
TAP	9	48	7
TAP	9	96	3
TAP	9	144	0
TAP	9	144	1
TAP	9	192	4
TAP	9	240	6
TAP	9	240	7
TAP	9	288	3
TAP	9	336	0
TAP	9	336	1
TAP	10	0	4
TAP	10	0	6
TAP	10	48	3
TAP	10	48	5
TAP	10	96	2
TAP	10	96	4
TAP	10	144	1
TAP	10	176	1
TAP	10	192	2
TAP	10	224	2
TAP	10	240	3
TAP	10	272	3
HLD	10	288	4	48
TAP	10	336	5
HLD	11	0	2	48
TAP	11	0	6
TAP	11	48	3
TAP	11	96	1
HLD	11	96	5	48
TAP	11	144	4
HLD	11	192	2	48
TAP	11	192	7
TAP	11	240	3
TAP	11	288	0
HLD	11	288	5	48
TAP	11	336	4
TAP	12	0	6
TAP	12	32	6
TAP	12	48	7
TAP	12	80	7
BRK	12	96	6
TAP	12	144	1
TAP	12	176	1
TAP	12	192	0
TAP	12	224	0
BRK	12	240	1
TAP	12	288	0
TAP	12	288	7
TAP	12	336	2
TAP	12	336	5
TAP	13	0	1
STR	13	0	6
SCL	13	0	6	96	48	3
TAP	13	96	2
TAP	13	96	6
STR	13	144	1
SCL	13	144	1	96	48	6
TAP	13	240	1
TAP	13	240	3
STR	13	288	4
SI_	13	288	4	96	48	0
STR	14	0	1
SCR	14	0	1	96	48	4
TAP	14	0	4
TAP	14	96	1
TAP	14	96	5
STR	14	144	6
SCR	14	144	6	96	48	1
TAP	14	240	4
TAP	14	240	6
STR	14	288	3
SI_	14	288	3	96	48	7
TAP	15	0	3
STR	15	0	6
SCL	15	0	6	96	48	3
TAP	15	96	2
TAP	15	96	6
STR	15	144	1
SCL	15	144	1	96	48	6
TAP	15	240	1
TAP	15	240	3
HLD	15	288	5	96
TAP	16	0	4
TAP	16	48	1
TAP	16	48	7
TAP	16	96	4
TAP	16	96	5
TAP	16	144	0
TAP	16	144	2
TAP	16	192	4
TAP	16	192	5
TAP	16	240	1
TAP	16	240	7
TAP	16	288	4
TAP	16	288	5
TAP	16	336	0
TAP	16	336	2
TAP	17	0	4
STR	17	0	5
SI_	17	0	5	96	48	1
TAP	17	96	5
HLD	17	144	0	96
TAP	17	240	1
STR	17	288	2
SCL	17	288	2	96	48	7
STR	17	288	7
SCL	17	288	7	96	48	4
TAP	18	0	2
STR	18	0	7
SI_	18	0	7	96	48	3
TAP	18	96	7
STR	18	144	5
SI_	18	144	5	96	48	0
TAP	18	240	1
TAP	18	240	5
TAP	18	288	2
TAP	18	336	3
TAP	19	0	0
STR	19	0	4
SCL	19	0	4	96	48	1
TAP	19	96	0
TAP	19	96	4
TAP	19	144	7
HLD	19	192	6	72
HLD	19	264	5	72
TAP	19	336	4
STR	20	0	2
SUL	20	0	2	96	96	1
STR	20	0	3
SCR	20	0	3	96	96	0
TAP	20	240	3
TAP	20	240	4
BRK	20	288	1
BRK	20	288	6
STR	21	0	1
SCR	21	0	1	96	48	4
TAP	21	0	6
TAP	21	96	1
TAP	21	96	5
STR	21	144	6
SCR	21	144	6	96	48	1
TAP	21	240	4
TAP	21	240	6
STR	21	288	3
SI_	21	288	3	96	48	7
TAP	22	0	3
STR	22	0	6
SCL	22	0	6	96	48	3
TAP	22	96	2
TAP	22	96	6
STR	22	144	1
SCL	22	144	1	96	48	6
TAP	22	240	1
TAP	22	240	3
STR	22	288	4
SI_	22	288	4	96	48	0
STR	23	0	1
SCR	23	0	1	96	48	4
TAP	23	0	4
TAP	23	96	1
TAP	23	96	5
STR	23	144	6
SCR	23	144	6	96	48	1
TAP	23	240	4
TAP	23	240	6
HLD	23	288	2	96
TAP	24	0	3
TAP	24	48	0
TAP	24	48	6
TAP	24	96	2
TAP	24	96	3
TAP	24	144	5
TAP	24	144	7
TAP	24	192	2
TAP	24	192	3
TAP	24	240	0
TAP	24	240	6
TAP	24	288	2
TAP	24	288	3
TAP	24	336	5
TAP	24	336	7
STR	25	0	2
SI_	25	0	2	96	48	6
TAP	25	0	3
TAP	25	96	2
HLD	25	144	7	96
TAP	25	240	6
STR	25	288	0
SCR	25	288	0	96	48	3
STR	25	288	5
SCR	25	288	5	96	48	0
STR	26	0	0
SI_	26	0	0	96	48	4
TAP	26	0	5
TAP	26	96	0
STR	26	144	2
SI_	26	144	2	96	48	7
TAP	26	240	2
TAP	26	240	6
TAP	26	288	5
TAP	26	336	4
STR	27	0	3
SCR	27	0	3	96	48	6
TAP	27	0	7
TAP	27	96	3
TAP	27	96	7
TAP	27	144	0
HLD	27	192	1	72
HLD	27	264	2	72
TAP	27	336	3
STR	28	0	4
SCL	28	0	4	96	96	7
STR	28	0	5
SUR	28	0	5	96	96	6
BRK	28	288	2
BRK	28	288	5
STR	29	0	0
SXL	29	0	0	96	96	4
TAP	29	0	6
HLD	29	192	7	72
HLD	29	264	6	72
TAP	29	336	5
HLD	30	0	1	72
HLD	30	72	2	72
TAP	30	144	3
STR	30	192	4
SI_	30	192	4	96	48	0
TAP	31	0	1
STR	31	0	7
SXR	31	0	7	96	96	3
HLD	31	192	0	72
HLD	31	264	1	72
TAP	31	336	2
HLD	32	0	6	72
HLD	32	72	5	72
TAP	32	144	4
STR	32	192	3
SI_	32	192	3	96	48	7
STR	33	0	0
SXL	33	0	0	96	96	5
TAP	33	0	6
HLD	33	192	7	72
HLD	33	264	6	72
TAP	33	336	5
HLD	34	0	1	72
HLD	34	72	2	72
TAP	34	144	3
STR	34	192	4
SI_	34	192	4	96	48	0
TAP	35	0	1
STR	35	0	7
SXR	35	0	7	96	96	2
HLD	35	192	0	72
HLD	35	264	1	72
TAP	35	336	2
HLD	36	0	6	72
HLD	36	72	5	72
TAP	36	144	4
TAP	36	192	1
TAP	36	192	6
TAP	36	288	2
TAP	36	288	5
TAP	36	336	3
TAP	36	360	4
TAP	37	0	3
TAP	37	24	4
TAP	37	48	2
TAP	37	72	3
TAP	37	96	1
TAP	37	120	5
TAP	37	144	4
TAP	37	168	6
STR	37	192	1
SI_	37	192	1	96	48	4
TAP	37	240	2
TAP	37	288	0
TAP	37	288	1
TAP	37	336	7
STR	38	0	6
SI_	38	0	6	96	48	3
TAP	38	0	7
TAP	38	48	5
TAP	38	96	6
TAP	38	96	7
TAP	38	144	0
TAP	38	192	0
STR	38	192	1
SI_	38	192	1	96	48	4
TAP	38	240	2
TAP	38	288	0
TAP	38	288	1
TAP	38	336	7
STR	39	0	6
SI_	39	0	6	96	48	3
TAP	39	0	7
TAP	39	48	5
TAP	39	96	6
TAP	39	96	7
TAP	39	144	0
TAP	39	192	0
STR	39	192	1
SI_	39	192	1	96	48	4
TAP	39	240	2
TAP	39	288	0
TAP	39	288	1
TAP	39	336	7
STR	40	0	5
SI_	40	0	5	96	48	0
TAP	40	0	6
TAP	40	48	4
TAP	40	96	4
TAP	40	96	5
TAP	40	144	3
TAP	40	192	1
TAP	40	224	1
TAP	40	240	2
TAP	40	272	2
TAP	40	288	3
TAP	40	320	3
TAP	40	336	4
TAP	40	368	4
TAP	41	0	5
TAP	41	32	5
TAP	41	48	6
TAP	41	80	6
TAP	41	96	7
TAP	41	128	7
TAP	41	144	0
TAP	41	176	0
STR	41	192	1
SI_	41	192	1	96	48	4
TAP	41	240	2
TAP	41	240	7
TAP	41	288	0
TAP	41	288	1
TAP	41	336	7
TAP	42	0	6
STR	42	0	7
SI_	42	0	7	96	48	2
SI_	42	0	7	96	48	4
TAP	42	48	0
TAP	42	48	5
TAP	42	96	7
STR	42	192	6
SI_	42	192	6	96	48	3
TAP	42	192	7
TAP	42	240	0
TAP	42	240	5
TAP	42	288	6
TAP	42	288	7
TAP	42	336	0
STR	43	0	0
SI_	43	0	0	96	48	3
SI_	43	0	0	96	48	5
TAP	43	0	1
TAP	43	48	2
TAP	43	48	7
TAP	43	96	0
TAP	43	192	4
STR	43	192	5
SCR	43	192	5	96	48	0
TAP	43	240	3
TAP	43	240	6
TAP	43	288	4
TAP	43	288	5
TAP	43	336	3
HLD	44	0	2	72
HLD	44	72	1	72
TAP	44	144	0
STR	44	192	6
SUL	44	192	6	96	96	5
STR	44	192	7
SCR	44	192	7	96	96	4
TAP	45	48	2
TAP	45	48	5
BRK	45	96	0
BRK	45	96	7
STR	45	192	6
SCL	45	192	6	96	48	3
TAP	45	192	7
TAP	45	240	5
TAP	45	288	6
TAP	45	288	7
TAP	45	336	0
TAP	46	0	0
STR	46	0	1
SCR	46	0	1	96	48	4
TAP	46	48	2
TAP	46	96	0
TAP	46	96	1
TAP	46	144	7
STR	46	192	6
SCL	46	192	6	96	48	3
TAP	46	192	7
TAP	46	240	5
TAP	46	288	6
TAP	46	288	7
TAP	46	336	0
TAP	47	0	0
STR	47	0	1
SCR	47	0	1	96	48	4
TAP	47	48	2
TAP	47	96	0
TAP	47	96	1
TAP	47	144	7
STR	47	192	6
SCL	47	192	6	96	48	3
TAP	47	192	7
TAP	47	240	5
TAP	47	288	6
TAP	47	288	7
TAP	47	336	0
TAP	48	0	1
STR	48	0	2
SI_	48	0	2	96	48	7
TAP	48	48	3
TAP	48	96	2
TAP	48	96	3
TAP	48	144	4
TAP	48	192	6
TAP	48	224	6
TAP	48	240	5
TAP	48	272	5
TAP	48	288	4
TAP	48	320	4
TAP	48	336	3
TAP	48	368	3
TAP	49	0	2
TAP	49	32	2
TAP	49	48	1
TAP	49	80	1
TAP	49	96	0
TAP	49	128	0
TAP	49	144	7
TAP	49	176	7
STR	49	192	6
SCL	49	192	6	96	48	3
TAP	49	240	0
TAP	49	240	5
TAP	49	288	6
TAP	49	288	7
TAP	49	336	0
STR	50	0	0
SI_	50	0	0	96	48	3
SCL	50	0	0	96	48	4
TAP	50	0	1
TAP	50	48	2
TAP	50	48	7
TAP	50	96	0
TAP	50	192	0
STR	50	192	1
SCR	50	192	1	96	48	4
TAP	50	240	2
TAP	50	240	7
TAP	50	288	0
TAP	50	288	1
TAP	50	336	7
TAP	51	0	6
STR	51	0	7
SI_	51	0	7	96	48	4
SCR	51	0	7	96	48	3
TAP	51	48	0
TAP	51	48	5
TAP	51	96	7
STR	51	192	2
SCL	51	192	2	96	48	7
TAP	51	192	3
TAP	51	240	1
TAP	51	240	4
TAP	51	288	2
TAP	51	288	3
TAP	51	336	4
HLD	52	0	5	72
HLD	52	72	6	72
TAP	52	144	7
STR	52	192	0
SCL	52	192	0	96	96	3
STR	52	192	1
SUR	52	192	1	96	96	2
TAP	53	96	2
TAP	53	96	5
TAP	53	144	1
TAP	53	144	6
STR	53	192	0
SXL	53	192	0	96	192	3
STR	53	192	7
SXR	53	192	7	96	192	4
BRK	54	192	1
BRK	54	192	6
BRK	54	224	1
BRK	54	224	6
TAP	54	288	2
TAP	54	288	5
TAP	54	336	4
TAP	54	368	4
TAP	55	0	3
TAP	55	48	1
TAP	55	48	6
TAP	55	96	2
TAP	55	128	2
TAP	55	144	3
TAP	55	176	3
TAP	55	192	4
BRK	55	240	1
BRK	55	240	6

T_REC_TAP	404
T_REC_BRK	20
T_REC_XTP	0
T_REC_HLD	38
T_REC_XHO	0
T_REC_STR	70
T_REC_BST	0
T_REC_XST	0
T_REC_TTP	0
T_REC_THO	0
T_REC_SLD	74
T_REC_ALL	606
T_NUM_TAP	474
T_NUM_BRK	20
T_NUM_HLD	38
T_NUM_SLD	74
T_NUM_ALL	606
T_JUDGE_TAP	494
T_JUDGE_HLD	66
T_JUDGE_SLD	74
T_JUDGE_ALL	634
TTM_EACHPAIRS	153
TTM_SCR_TAP	237000
TTM_SCR_BRK	52000
TTM_SCR_HLD	38000
TTM_SCR_SLD	111000
TTM_SCR_ALL	438000
TTM_SCR_S	422950
TTM_SCR_SS	436000
TTM_RAT_ACV	10045

