VERSION	0.00.00	1.03.00
FES_MODE	0
BPM_DEF	132.000	132.000	132.000	132.000
MET_DEF	4	4
RESOLUTION	384
CLK_DEF	384
COMPATIBLE_CODE	MA2

BPM	0	0	132.000
MET	0	0	4	4
MET	37	0	4	2
MET	37	192	4	4

HLD	1	0	2	384
TAP	1	48	3
TAP	1	144	3
TAP	1	240	4
TAP	1	336	4
HLD	2	0	5	384
TAP	2	48	4
TAP	2	144	4
TAP	2	240	3
TAP	2	336	3
HLD	3	0	2	192
TAP	3	48	3
TAP	3	144	4
HLD	3	192	5	144
TAP	3	240	4
TAP	3	336	3
TAP	4	0	3
TAP	4	0	4
TAP	4	96	3
TAP	4	96	4
TAP	4	192	3
TAP	4	192	4
BRK	4	288	1
BRK	4	288	6
TAP	5	0	1
TAP	5	48	0
TAP	5	96	2
TAP	5	144	7
TAP	5	192	2
TAP	5	240	3
TAP	5	288	1
TAP	5	336	4
TAP	6	0	2
TAP	6	0	6
TAP	6	48	5
TAP	6	96	4
TAP	6	144	3
TAP	6	192	1
TAP	6	192	4
TAP	6	240	2
TAP	6	288	3
TAP	6	336	4
TAP	7	0	5
TAP	7	48	4
TAP	7	96	6
TAP	7	144	3
TAP	7	192	6
TAP	7	240	7
TAP	7	288	5
TAP	7	336	0
TAP	8	0	5
TAP	8	48	4
TAP	8	96	3
TAP	8	96	5
TAP	8	144	2
TAP	8	192	3
HLD	8	240	2	96
HLD	8	240	4	96
TAP	9	0	6
TAP	9	48	7
TAP	9	96	5
TAP	9	144	0
TAP	9	192	5
TAP	9	240	4
TAP	9	288	6
TAP	9	336	3
TAP	10	0	1
TAP	10	0	5
TAP	10	48	2
TAP	10	96	3
TAP	10	144	4
TAP	10	192	3
TAP	10	192	6
TAP	10	240	5
TAP	10	288	4
TAP	10	336	3
TAP	11	0	2
TAP	11	48	3
TAP	11	96	1
TAP	11	144	4
TAP	11	192	1
TAP	11	240	0
TAP	11	288	2
TAP	11	336	7
TAP	12	0	2
TAP	12	48	3
TAP	12	96	2
TAP	12	96	4
TAP	12	144	5
TAP	12	192	4
HLD	12	240	3	96
HLD	12	240	5	96
STR	13	0	6
SCL	13	0	6	96	48	3
STR	13	144	0
SUR	13	144	0	96	48	4
HLD	13	288	7	96
STR	14	0	1
SCR	14	0	1	96	48	4
STR	14	144	7
SUL	14	144	7	96	48	3
HLD	14	288	0	96
STR	15	0	6
SUL	15	0	6	96	48	2
STR	15	144	0
SCR	15	144	0	96	48	3
TAP	15	288	6
STR	16	0	6
SXR	16	0	6	96	192	3
STR	16	0	7
SXL	16	0	7	96	192	2
STR	17	0	6
SI_	17	0	6	96	48	4
STR	17	144	7
SI_	17	144	7	96	48	3
HLD	17	288	0	96
STR	18	0	1
SI_	18	0	1	96	48	3
STR	18	144	0
SI_	18	144	0	96	48	4
HLD	18	288	7	96
STR	19	0	6
SXL	19	0	6	96	192	1
TAP	20	0	3
TAP	20	96	3
TAP	20	192	3
TAP	20	288	3
TAP	20	336	4
STR	21	0	3
SCL	21	0	3	96	48	0
STR	21	144	5
SUR	21	144	5	96	48	1
HLD	21	288	2	96
STR	22	0	4
SCR	22	0	4	96	48	7
STR	22	144	2
SUL	22	144	2	96	48	6
HLD	22	288	5	96
STR	23	0	3
SUL	23	0	3	96	48	7
STR	23	144	6
SCR	23	144	6	96	48	1
TAP	23	288	2
STR	24	0	0
SXR	24	0	0	96	192	5
STR	24	0	1
SXL	24	0	1	96	192	4
STR	25	0	0
SCR	25	0	0	96	48	3
STR	25	144	5
SCR	25	144	5	96	48	0
HLD	25	288	2	96
STR	26	0	6
SCL	26	0	6	96	48	3
STR	26	144	1
SCL	26	144	1	96	48	6
HLD	26	288	4	96
STR	27	0	5
SXR	27	0	5	96	192	2
TAP	28	0	4
TAP	28	96	4
TAP	28	192	4
TAP	28	288	4
TAP	28	336	3
HLD	29	0	2	576
HLD	29	0	4	96
HLD	29	192	3	96
HLD	30	0	1	96
TAP	30	192	0
TAP	30	288	1
TAP	30	288	6
HLD	31	0	3	96
HLD	31	0	5	576
HLD	31	192	4	96
HLD	32	0	6	96
TAP	32	192	7
TAP	32	288	1
TAP	32	288	6
HLD	33	0	1	576
HLD	33	0	7	96
HLD	33	192	0	96
HLD	34	0	2	96
TAP	34	192	3
TAP	34	288	2
TAP	34	288	5
HLD	35	0	0	96
HLD	35	0	6	576
HLD	35	192	7	96
HLD	36	0	5	96
TAP	36	192	4
TAP	36	288	2
BST	36	288	5
SXL	36	288	5	96	192	3
TAP	37	192	2
TAP	37	288	1
TAP	37	288	3
TAP	38	0	1
TAP	38	48	0
TAP	38	96	2
TAP	38	96	7
TAP	38	192	5
TAP	38	288	4
TAP	38	288	6
TAP	39	0	6
TAP	39	48	7
TAP	39	96	0
TAP	39	96	5
TAP	39	192	0
TAP	39	192	7
TAP	39	288	1
TAP	39	288	6
TAP	40	0	3
TAP	40	48	4
TAP	40	96	2
TAP	40	96	5
STR	40	192	1
SXL	40	192	1	96	192	0
STR	40	192	5
SXL	40	192	5	96	192	4
TAP	41	192	1
TAP	41	240	0
TAP	41	288	2
TAP	41	288	7
TAP	42	0	6
TAP	42	48	7
TAP	42	96	0
TAP	42	96	5
TAP	42	192	2
TAP	42	240	3
TAP	42	288	1
TAP	42	288	4
TAP	43	0	5
TAP	43	48	4
TAP	43	96	3
TAP	43	96	6
STR	43	192	3
SCL	43	192	3	96	192	4
STR	43	192	4
SUL	43	192	4	96	192	3
TAP	44	192	3
TAP	44	288	3
TAP	45	0	3
TAP	45	96	3
TAP	45	144	4
TAP	45	192	3
TAP	45	192	5
TAP	45	240	4
TAP	45	288	3
TAP	45	336	2
TAP	45	336	4
TAP	46	0	3
TAP	46	48	4
TAP	46	96	3
TAP	46	96	5
TAP	46	192	1
TAP	46	192	4
TAP	46	240	3
TAP	46	288	4
TAP	46	336	3
TAP	46	336	6
TAP	47	0	4
TAP	47	48	3
TAP	47	96	1
TAP	47	96	4
TAP	47	192	4
TAP	47	192	6
TAP	47	240	3
TAP	47	288	4
TAP	47	336	1
TAP	47	336	3
TAP	48	0	4
TAP	48	48	3
TAP	48	96	4
TAP	48	96	6
TAP	48	192	0
TAP	48	192	1
TAP	48	240	2
TAP	48	288	4
TAP	48	336	6
TAP	48	336	7
TAP	49	0	5
TAP	49	48	3
TAP	49	96	0
TAP	49	96	1
TAP	49	192	1
TAP	49	240	0
TAP	49	288	2
TAP	49	336	7
TAP	50	0	3
TAP	50	48	6
TAP	50	96	4
TAP	50	144	5
TAP	50	192	7
TAP	50	240	6
TAP	50	288	0
TAP	50	336	5
TAP	51	0	1
TAP	51	48	4
TAP	51	96	2
TAP	51	144	3
STR	51	192	2
SXR	51	192	2	96	192	7
STR	51	192	4
SXL	51	192	4	96	192	7
STR	52	192	3
SXR	52	192	3	96	192	0
STR	52	192	5
SXL	52	192	5	96	192	0
HLD	53	192	1	288
HLD	53	192	7	288
TAP	54	192	0
TAP	54	192	5
TAP	54	288	2
TAP	54	288	7
TAP	55	0	0
TAP	55	0	4
TAP	55	96	0
TAP	55	144	7
BRK	55	192	1
BRK	55	192	6

T_REC_TAP	212
T_REC_BRK	4
T_REC_XTP	0
T_REC_HLD	34
T_REC_XHO	0
T_REC_STR	34
T_REC_BST	1
T_REC_XST	0
T_REC_TTP	0
T_REC_THO	0
T_REC_SLD	35
T_REC_ALL	320
T_NUM_TAP	246
T_NUM_BRK	5
T_NUM_HLD	34
T_NUM_SLD	35
T_NUM_ALL	320
T_JUDGE_TAP	251
T_JUDGE_HLD	131
T_JUDGE_SLD	35
T_JUDGE_ALL	417
TTM_EACHPAIRS	54
TTM_SCR_TAP	123000
TTM_SCR_BRK	13000
TTM_SCR_HLD	34000
TTM_SCR_SLD	52500
TTM_SCR_ALL	222500
TTM_SCR_S	215350
TTM_SCR_SS	222000
TTM_RAT_ACV	10022

