VERSION	0.00.00	1.03.00
FES_MODE	0
BPM_DEF	132.000	132.000	132.000	132.000
MET_DEF	4	4
RESOLUTION	384
CLK_DEF	384
COMPATIBLE_CODE	MA2

BPM	0	0	132.000
MET	0	0	4	4
MET	37	0	4	2
MET	37	192	4	4

TAP	1	0	3
TAP	1	96	3
TAP	1	192	3
TAP	2	0	4
TAP	2	96	4
TAP	2	192	4
TAP	3	0	3
TAP	3	96	3
TAP	3	192	4
TAP	3	288	4
TAP	4	0	3
TAP	4	0	4
TAP	4	96	3
TAP	4	96	4
BRK	4	192	2
BRK	4	192	5
TAP	5	0	2
TAP	5	96	3
TAP	5	192	4
TAP	5	288	5
TAP	6	0	6
TAP	6	96	6
TAP	6	96	7
TAP	6	192	6
TAP	6	192	7
TAP	7	0	5
TAP	7	96	4
TAP	7	192	3
TAP	7	288	2
HLD	8	0	0	192
HLD	8	0	1	192
TAP	9	0	1
TAP	9	96	0
TAP	9	192	7
TAP	9	288	6
TAP	10	0	5
TAP	10	96	4
TAP	10	96	5
TAP	10	192	4
TAP	10	192	5
TAP	11	0	6
TAP	11	96	7
TAP	11	192	0
TAP	11	288	1
HLD	12	0	2	192
HLD	12	0	3	192
TAP	13	0	5
TAP	13	96	4
TAP	13	192	3
TAP	13	192	6
TAP	14	0	2
TAP	14	96	3
TAP	14	192	1
TAP	14	192	4
HLD	15	0	4	96
HLD	15	0	5	96
HLD	15	192	2	96
HLD	15	192	3	96
STR	16	0	4
SI_	16	0	4	96	144	1
STR	16	0	5
SI_	16	0	5	96	144	0
TAP	17	0	1
TAP	17	96	0
TAP	17	192	2
TAP	17	192	7
TAP	18	0	6
TAP	18	96	7
TAP	18	192	0
TAP	18	192	5
TAP	19	0	0
STR	19	0	1
SCR	19	0	1	96	288	6
TAP	20	192	0
TAP	20	192	7
TAP	20	288	0
TAP	20	288	7
TAP	21	0	6
TAP	21	96	7
TAP	21	192	0
TAP	21	192	5
TAP	22	0	1
TAP	22	96	0
TAP	22	192	2
TAP	22	192	7
HLD	23	0	6	96
HLD	23	0	7	96
HLD	23	192	0	96
HLD	23	192	1	96
STR	24	0	6
SI_	24	0	6	96	144	3
STR	24	0	7
SI_	24	0	7	96	144	2
TAP	25	0	2
TAP	25	96	3
TAP	25	192	1
TAP	25	192	4
TAP	26	0	5
TAP	26	96	4
TAP	26	192	3
TAP	26	192	6
STR	27	0	2
SCL	27	0	2	96	288	5
TAP	27	0	3
TAP	28	192	3
TAP	28	192	4
TAP	28	288	3
TAP	28	288	4
STR	29	0	2
SI_	29	0	2	96	144	7
TAP	29	0	3
HLD	30	0	7	192
HLD	30	192	6	192
STR	31	0	5
SI_	31	0	5	96	144	0
HLD	32	0	0	192
HLD	32	192	1	192
STR	33	0	2
SCL	33	0	2	96	144	7
HLD	34	0	7	192
HLD	34	192	6	192
STR	35	0	5
SCR	35	0	5	96	144	0
HLD	36	0	0	192
TAP	36	192	1
TAP	37	0	0
TAP	37	0	7
TAP	37	96	0
TAP	37	96	7
HLD	37	192	1	96
TAP	37	288	0
TAP	38	0	2
TAP	38	0	7
HLD	38	192	6	96
TAP	38	288	7
TAP	39	0	0
TAP	39	0	5
TAP	39	192	0
TAP	39	192	1
TAP	39	288	0
TAP	39	288	1
TAP	40	0	6
TAP	40	0	7
TAP	40	96	6
TAP	40	96	7
STR	40	192	0
SI_	40	192	0	96	144	5
STR	40	192	1
SI_	40	192	1	96	144	4
HLD	41	192	5	96
TAP	41	288	4
TAP	42	0	3
TAP	42	0	6
HLD	42	192	2	96
TAP	42	288	3
TAP	43	0	1
TAP	43	0	4
TAP	43	192	4
STR	43	192	5
SCR	43	192	5	96	288	2
TAP	45	0	3
TAP	45	0	4
TAP	45	96	2
TAP	45	96	5
HLD	45	192	2	96
TAP	45	288	3
TAP	46	0	1
TAP	46	0	4
HLD	46	192	5	96
TAP	46	288	4
TAP	47	0	3
TAP	47	0	6
TAP	47	192	2
TAP	47	192	3
TAP	47	288	2
TAP	47	288	3
TAP	48	0	4
TAP	48	0	5
TAP	48	96	4
TAP	48	96	5
STR	48	192	2
SI_	48	192	2	96	144	7
STR	48	192	3
SI_	48	192	3	96	144	6
HLD	49	192	6	96
TAP	49	288	7
TAP	50	0	0
TAP	50	0	5
HLD	50	192	1	96
TAP	50	288	0
TAP	51	0	2
TAP	51	0	7
STR	51	192	6
SCL	51	192	6	96	192	3
TAP	51	192	7
STR	52	192	2
SCL	52	192	2	96	192	7
STR	53	192	6
SI_	53	192	6	96	144	2
TAP	54	192	2
TAP	54	192	3
TAP	54	288	4
TAP	54	288	5
TAP	55	0	3
TAP	55	0	4
TAP	55	96	3
TAP	55	96	4
BRK	55	192	1
BRK	55	192	6

T_REC_TAP	142
T_REC_BRK	4
T_REC_XTP	0
T_REC_HLD	27
T_REC_XHO	0
T_REC_STR	18
T_REC_BST	0
T_REC_XST	0
T_REC_TTP	0
T_REC_THO	0
T_REC_SLD	18
T_REC_ALL	209
T_NUM_TAP	160
T_NUM_BRK	4
T_NUM_HLD	27
T_NUM_SLD	18
T_NUM_ALL	209
T_JUDGE_TAP	164
T_JUDGE_HLD	76
T_JUDGE_SLD	18
T_JUDGE_ALL	258
TTM_EACHPAIRS	59
TTM_SCR_TAP	80000
TTM_SCR_BRK	10400
TTM_SCR_HLD	27000
TTM_SCR_SLD	27000
TTM_SCR_ALL	144400
TTM_SCR_S	139700
TTM_SCR_SS	144000
TTM_RAT_ACV	10027

